<?xml version="1.0" standalone="no"?>
<!DOCTYPE svg PUBLIC "-//W3C//DTD SVG 1.1//EN" "http://www.w3.org/Graphics/SVG/1.1/DTD/svg11.dtd" >
<svg xmlns="http://www.w3.org/2000/svg">
<metadata>Generated by IcoMoon</metadata>
<defs>
<font id="Default" horiz-adv-x="512">
<font-face units-per-em="512" ascent="480" descent="-32" />
<missing-glyph horiz-adv-x="512" />
<glyph unicode="&#x20;" d="" horiz-adv-x="256" />
<glyph unicode="&#xe000;" d="M256 405.333q34.834 0 67.75-10.584t57.75-27.5 46.75-37.416 36.834-41 25.834-37.417 16.084-27.416l5-10.667q-1.166-2.5-3.166-6.75t-9.416-17.334-15.834-25.834-22.166-30-28.416-32.166-34.75-30.084-41.166-25.75-47.416-17.334-53.666-6.75q-34.834 0-67.75 10.584t-57.75 27.416-46.75 37.166-36.834 40.75-25.834 37.25-16.084 27.5l-5 10.5q1.167 2.5 3.167 6.75t9.416 17.417 15.834 25.916 22.166 30.167 28.416 32.333 34.75 30.167 41.167 25.916 47.416 17.416 53.666 6.75zM256 362.667q-23.334 0-45.834-6.166t-40.584-15.916-35.334-23.584-29.834-27.25-24.416-28.833-18.834-26.417-13.166-22q6.166-10.834 13.166-21.75t18.834-26.166 24.416-28.5 29.834-26.916 35.334-23.334 40.584-15.75 45.834-6.084 45.834 6.166 40.584 15.834 35.334 23.416 29.834 27.084 24.416 28.666 18.834 26.334 13.166 21.834q-6.166 10.834-13.166 21.834t-18.834 26.334-24.416 28.666-29.834 27.084-35.334 23.416-40.584 15.834-45.834 6.166zM256 298.667q35.334 0 60.334-25t25-60.334-25-60.334-60.334-25-60.334 25-25 60.334 25 60.334 60.334 25zM256 256q-17.666 0-30.166-12.5t-12.5-30.167 12.5-30.166 30.166-12.5 30.166 12.5 12.5 30.166-12.5 30.167-30.166 12.5z" />
<glyph unicode="&#xe001;" d="M337 469.333q20.834 0 40-7.833 20-8 35.334-23.334 15.5-15.666 23.334-35.167 7.666-18.833 7.666-40t-7.666-40q-7.834-19.5-23.334-35.166l-196.333-196.334q-9-9-21.333-14.166-12-4.666-24-4.666t-24 4.666q-12.334 5.166-21.334 14.166-9.334 9.334-14 21.166-4.666 11.334-4.666 24 0 12.834 4.666 24.166 4.666 11.666 14 21.166l181.167 181q6.334 6.334 15.166 6.334 8.666 0 15-6.334t6.334-15q0-8.833-6.334-15.166l-181.167-181q-6.167-6.166-6.167-15.166 0-8.834 6.167-15 6.667-6.334 15.167-6.334t15.166 6.334l196.334 196.334q18.5 18.5 18.5 45t-18.5 45q-19 18.666-45.166 18.666-26.334 0-45-18.666l-196.833-195.834q-15.334-15.334-23.334-35.334-7.834-19.166-7.834-40.166 0-20.666 7.834-40.166 8-19.834 23.334-35.166 15.834-15.666 35.333-23.5t40.166-7.834 40.166 7.834 35.334 23.5l196 196q6.334 6.334 15.166 6.334 8.666 0 15-6.334t6.334-15q0-8.834-6.334-15.166l-196-196q-21.5-21.5-49.5-32.834-26.666-11-56.166-11-29.334 0-56.166 11-28 11.334-49.5 32.834-21.334 21.334-32.666 49.334-11 27-11 56.166 0 29.334 11 56.166 11.166 27.666 32.666 49.5h0.166l196.667 195.833q15.334 15.334 35.166 23.334 19.5 7.833 40 7.833z" />
<glyph unicode="&#xe002;" d="M85.334 405.333h341.334q26.5 0 45.25-18.75t18.75-45.25v-256q0-26.5-18.75-45.25t-45.25-18.75h-341.334q-26.5 0-45.25 18.75t-18.75 45.25v256q0 26.5 18.75 45.25t45.25 18.75zM448 85.333v233l-178.667-143q-5.666-4.666-13.334-4.666t-13.334 4.666l-178.667 143v-233q0-8.834 6.25-15.084t15.084-6.25h341.334q8.834 0 15.084 6.25t6.25 15.084zM426.666 362.667h-341.334q-3.166 0-7-1.166l177.667-142.167 177.667 142.167q-3.834 1.166-7 1.166z" />
<glyph unicode="&#xe003;" d="M170.667 384h170.667q34.666 0 66.25-13.5t54.5-36.416 36.416-54.5 13.5-66.25-13.5-66.25-36.416-54.5-54.5-36.416-66.25-13.5h-170.667q-34.667 0-66.25 13.5t-54.5 36.416-36.416 54.5-13.5 66.25 13.5 66.25 36.416 54.5 54.5 36.416 66.25 13.5zM170.667 298.667q35.333 0 60.333-25t25-60.334-25-60.334-60.334-25-60.334 25-25 60.334 25 60.334 60.334 25zM170.667 256q-17.667 0-30.167-12.5t-12.5-30.167 12.5-30.166 30.166-12.5 30.166 12.5 12.5 30.166-12.5 30.167-30.166 12.5zM341.334 341.333h-170.667q-34.833 0-64.25-17.167t-46.584-46.583-17.166-64.25 17.166-64.25 46.584-46.584 64.25-17.166h170.667q34.834 0 64.25 17.166t46.584 46.584 17.166 64.25-17.166 64.25-46.584 46.583-64.25 17.167z" />
<glyph unicode="&#xe004;" d="M85.334 448h341.334q26.5 0 45.25-18.75t18.75-45.25v-341.334q0-26.5-18.75-45.25t-45.25-18.75h-341.334q-26.5 0-45.25 18.75t-18.75 45.25v341.334q0 26.5 18.75 45.25t45.25 18.75zM170.667 21.333v256h-106.666v-234.667q0-8.834 6.25-15.084t15.084-6.25h85.334zM448 42.667v234.667h-234.667v-256h213.333q8.834 0 15.084 6.25t6.25 15.084zM426.666 405.333h-341.334q-8.834 0-15.084-6.25t-6.25-15.084v-64h384v64q0 8.834-6.25 15.084t-15.084 6.25z" />
<glyph unicode="&#xe005;" d="M362.666 448q25.166 0 48.584-9.5t41.916-28 28-41.916 9.5-48.584q0-25-9.584-48.583t-27.916-41.917l-64-64q-1.834-1.834-5.5-5.166-17.834-15.834-39.834-24.084t-45.166-8.25q-29.166 0-55.166 12.5-19.5 9.166-35.334 25t-25 35.334q12.5 12.5 30.166 12.5 6.167 0 12.5-1.834 10.834-17.5 28.334-28.334 20.5-12.5 44.5-12.5 16.666 0 32.334 6.334t28 18.666l64 64q12.334 12.333 18.666 28t6.334 32.333-6.334 32.334-18.666 28-28 18.666-32.334 6.334-32.334-6.334-28-18.666l-44.834-44.834q-21.334 5.834-44.166 5.834-3.667 0-10.334-0.334 3.333 3.667 5.167 5.5l64 64q18.334 18.334 41.916 27.917t48.584 9.583zM213.333 298.667q29.167 0 55.167-12.5 19.5-9.167 35.334-25t25-35.333q-12.5-12.5-30.166-12.5-6.166 0-12.5 1.834-10.834 17.5-28.334 28.333-20.5 12.5-44.5 12.5-16.666 0-32.334-6.333t-28-18.667l-64-64q-12.334-12.334-18.666-28t-6.334-32.334 6.334-32.334 18.666-28 28-18.666 32.334-6.334 32.334 6.334 28 18.666l44.834 44.834q21.334-5.834 44.166-5.834 3.666 0 10.334 0.334-3.334-3.666-5.166-5.5l-64-64q-18.5-18.5-41.916-28t-48.584-9.5q-25 0-48.584 9.584t-41.916 27.916q-18.5 18.5-28 41.916t-9.5 48.584 9.5 48.584 28 41.916l64 64q1.834 1.833 5.5 5.166 17.834 15.834 39.834 24.084t45.166 8.25z" />
<glyph unicode="&#xe006;" d="M256 448q27.5 0 52-8.917t43.5-24.584 34.166-37.25 25.25-46.666 15.75-53.25q16.834-84.5 35.75-133.584t49.584-79.75h-195.667q3.666-10.5 3.666-21.334 0-26.5-18.75-45.25t-45.25-18.75-45.25 18.75-18.75 45.25q0 10.834 3.667 21.334h-195.667q30.666 30.666 49.584 79.75t35.75 133.584q5.666 28.167 15.75 53.25t25.25 46.666 34.166 37.25 43.5 24.584 52 8.916zM256 64q-8.834 0-15.084-6.25t-6.25-15.084 6.25-15.084 15.084-6.25 15.084 6.25 6.25 15.084-6.25 15.084-15.084 6.25zM256 405.333q-19.334 0-36.416-6t-29.25-15.334-22.584-22.416-16.916-25.417-11.75-26.333-7.75-23.084-4.166-17.75q-21.334-107.5-47-162.334h351.666q-25.666 54.834-47 162.334-1.666 8.667-4.166 17.75t-7.75 23.083-11.75 26.334-16.916 25.416-22.584 22.417-29.25 15.333-36.416 6z" />
<glyph unicode="&#xe007;" d="M256 448q34.834 0 64.25-17.167t46.584-46.584 17.166-64.25v-85.333h42.666q26.5 0 45.25-18.75t18.75-45.25v-128q0-26.5-18.75-45.25t-45.25-18.75h-341.334q-26.5 0-45.25 18.75t-18.75 45.25v128q0 26.5 18.75 45.25t45.25 18.75h42.666v85.333q0 34.834 17.166 64.25t46.583 46.584 64.25 17.166zM426.666 192h-341.334q-8.834 0-15.084-6.25t-6.25-15.084v-128q0-8.834 6.25-15.084t15.084-6.25h341.334q8.834 0 15.084 6.25t6.25 15.084v128q0 8.834-6.25 15.084t-15.084 6.25zM256 405.333q-35.334 0-60.334-25t-25-60.334v-85.333h170.666v85.333q0 35.334-25 60.334t-60.334 25z" />
<glyph unicode="&#xe008;" d="M256 448q34.834 0 64.25-17.167t46.584-46.584 17.166-64.25v-21.333q0-8.834-6.25-15.084t-15.084-6.25-15.084 6.25-6.25 15.084v21.333q0 35.334-25 60.334t-60.334 25-60.334-25-25-60.334v-85.333h256q26.5 0 45.25-18.75t18.75-45.25v-128q0-26.5-18.75-45.25t-45.25-18.75h-341.334q-26.5 0-45.25 18.75t-18.75 45.25v128q0 26.5 18.75 45.25t45.25 18.75h42.666v85.333q0 34.834 17.166 64.25t46.583 46.584 64.25 17.166zM426.666 192h-341.334q-8.834 0-15.084-6.25t-6.25-15.084v-128q0-8.834 6.25-15.084t15.084-6.25h341.334q8.834 0 15.084 6.25t6.25 15.084v128q0 8.834-6.25 15.084t-15.084 6.25z" />
<glyph unicode="&#xe009;" d="M149.333 448h213.333q26.5 0 45.25-18.75t18.75-45.25v-405.334l-170.666 128-170.667-128v405.334q0 26.5 18.75 45.25t45.25 18.75zM362.666 405.333h-213.333q-8.833 0-15.083-6.25t-6.25-15.084v-320l128 96 128-96v320q0 8.834-6.25 15.084t-15.084 6.25z" />
<glyph unicode="&#xe010;" d="M85.334 448h341.334q26.5 0 45.25-18.75t18.75-45.25v-341.334q0-26.5-18.75-45.25t-45.25-18.75h-341.334q-26.5 0-45.25 18.75t-18.75 45.25v341.334q0 26.5 18.75 45.25t45.25 18.75zM448 97.833l-106.666 106.666-183.167-183.166h268.5q8.834 0 15.084 6.25t6.25 15.084v55.166zM426.666 405.333h-341.334q-8.834 0-15.084-6.25t-6.25-15.084v-341.334q0-8.834 6.25-15.084t15.084-6.25h12.5l243.5 243.5 106.666-106.666v225.834q0 8.833-6.25 15.083t-15.084 6.25zM170.667 362.667q26.5 0 45.25-18.75t18.75-45.25-18.75-45.25-45.25-18.75-45.25 18.75-18.75 45.25 18.75 45.25 45.25 18.75zM170.667 320q-8.833 0-15.083-6.25t-6.25-15.084 6.25-15.083 15.084-6.25 15.084 6.25 6.25 15.083-6.25 15.084-15.084 6.25z" />
<glyph unicode="&#xe011;" d="M256 384q65.5 0 127.5-23t112.5-67.666q7.166-6.167 7.166-16 0-8.334-5.334-14.167l-1-1q-6.166-6.166-15-6.166-8.334 0-14.166 5.334-44.5 39.333-99.25 59.666t-112.416 20.334-112.416-20.334-99.25-59.666q-5.834-5.334-14.166-5.334-9.834 0-16 7.166-5.334 5.834-5.334 14.167 0 9.833 7.166 16 50.666 44.666 112.584 67.666t127.416 23zM256.166 128q29 0 53.834-14.666 5-3 7.834-7.916t2.834-10.584-3-10.666q-1.5-2.5-3.334-4.334-6.166-6.166-15.166-6.166-6 0-10.666 2.834-15.166 8.834-32.334 8.834-17.334 0-32.5-8.834-5.333-3-10.834-3-12.166 0-18.5 10.5-3 5-3 10.666 0 12.166 10.5 18.5 25.166 14.834 54.334 14.834zM256 255.833q40.334 0 78.5-13.334t70-39.5q7.834-6.334 7.834-16.5 0-7.666-4.834-13.5-1-1.334-1.334-1.666-6.166-6.166-15-6.166-7.834 0-13.666 4.834-26 21.334-57.334 32.334t-64.166 11-64.166-11-57.334-32.334q-5.833-4.834-13.5-4.834-10.166 0-16.5 7.834-4.834 5.834-4.834 13.5 0 10.166 7.834 16.5 31.666 26.167 70 39.5t78.5 13.334z" />
<glyph unicode="&#xe012;" d="M256 448q47.834 0 91.25-18.584t74.834-50 50-74.833 18.584-91.25-18.584-91.25-50-74.834-74.834-50-91.25-18.584-91.25 18.584-74.834 50-50 74.834-18.584 91.25 18.584 91.25 50 74.833 74.834 50 91.25 18.584zM256 405.333q-39 0-74.584-15.25t-61.25-40.917-40.916-61.25-15.25-74.584 15.25-74.584 40.916-61.25 61.25-40.916 74.584-15.25 74.584 15.25 61.25 40.916 40.916 61.25 15.25 74.584-15.25 74.584-40.916 61.25-61.25 40.917-74.584 15.25zM256 362.667q30.334 0 58-11.833t47.666-31.834 31.834-47.666 11.834-58-11.834-58-31.834-47.666-47.666-31.834-58-11.834-58 11.834-47.666 31.834-31.834 47.666-11.834 58 11.834 58 31.834 47.666 47.666 31.834 58 11.834zM256 320q-21.666 0-41.416-8.5t-34-22.75-22.75-34-8.5-41.417 8.5-41.416 22.75-34 34-22.75 41.416-8.5 41.416 8.5 34 22.75 22.75 34 8.5 41.416-8.5 41.417-22.75 34-34 22.75-41.416 8.5zM256 277.333q26.5 0 45.25-18.75t18.75-45.25-18.75-45.25-45.25-18.75-45.25 18.75-18.75 45.25 18.75 45.25 45.25 18.75zM256 234.667q-8.834 0-15.084-6.25t-6.25-15.084 6.25-15.084 15.084-6.25 15.084 6.25 6.25 15.084-6.25 15.084-15.084 6.25z" />
<glyph unicode="&#xe013;" d="M213.333 448h85.333q20.666 0 37.166-11.917t23.166-30.75h25q26.5 0 45.25-18.75t18.75-45.25v-298.667q0-26.5-18.75-45.25t-45.25-18.75h-256q-26.5 0-45.25 18.75t-18.75 45.25v298.667q0 26.5 18.75 45.25t45.25 18.75h25q6.667 18.833 23.166 30.75t37.166 11.917zM384 362.667h-25q-6.666-18.833-23.166-30.75t-37.166-11.916h-85.334q-20.666 0-37.166 11.916t-23.166 30.75h-25q-8.834 0-15.084-6.25t-6.25-15.083v-298.667q0-8.834 6.25-15.084t15.084-6.25h256q8.834 0 15.084 6.25t6.25 15.084v298.667q0 8.833-6.25 15.083t-15.084 6.25zM298.666 405.333h-85.334q-8.834 0-15.084-6.25t-6.25-15.084 6.25-15.083 15.084-6.25h85.334q8.834 0 15.084 6.25t6.25 15.083-6.25 15.084-15.084 6.25z" />
<glyph unicode="&#xe014;" d="M256 448q47.834 0 91.25-18.584t74.834-50 50-74.833 18.584-91.25-18.584-91.25-50-74.834-74.834-50-91.25-18.584-91.25 18.584-74.834 50-50 74.834-18.584 91.25 18.584 91.25 50 74.833 74.834 50 91.25 18.584zM256 405.333q-39 0-74.584-15.25t-61.25-40.917-40.916-61.25-15.25-74.584 15.25-74.584 40.916-61.25 61.25-40.916 74.584-15.25 74.584 15.25 61.25 40.916 40.916 61.25 15.25 74.584-15.25 74.584-40.916 61.25-61.25 40.917-74.584 15.25zM256 362.667q8.834 0 15.084-6.25t6.25-15.083v-119.167l57.834-57.666q6.166-6.166 6.166-15.166t-6.166-15.166-15.166-6.166-15.166 6.166l-64 64q-6.167 6.166-6.167 15.166v128q0 8.834 6.25 15.084t15.083 6.25z" />
<glyph unicode="&#xe015;" d="M192 469.333h128q26.5 0 45.25-18.75t18.75-45.25v-49q30-26.667 47-63.917t17-79.084-17-79-47-64v-49q0-26.5-18.75-45.25t-45.25-18.75h-128q-26.5 0-45.25 18.75t-18.75 45.25v49q-30 26.834-47 64t-17 79 17 79.084 47 63.917v49q0 26.5 18.75 45.25t45.25 18.75zM341.334 21.333v20q-40-20-85.334-20t-85.334 20v-20q0-8.834 6.25-15.084t15.084-6.25h128q8.834 0 15.084 6.25t6.25 15.084zM256 362.667q-30.334 0-58-11.833t-47.666-31.834-31.834-47.666-11.834-58 11.834-58 31.834-47.666 47.666-31.834 58-11.834 58 11.834 47.666 31.834 31.834 47.666 11.834 58-11.834 58-31.834 47.666-47.666 31.834-58 11.834zM256 320q8.834 0 15.084-6.25t6.25-15.084v-76.5l36.5-36.334q6.166-6.166 6.166-15.166t-6.166-15.166-15.166-6.166-15.166 6.166l-42.666 42.666q-6.167 6.166-6.167 15.166v85.334q0 8.834 6.25 15.084t15.083 6.25zM320 426.667h-128q-8.834 0-15.084-6.25t-6.25-15.083v-20q40 20 85.334 20t85.334-20v20q0 8.833-6.25 15.083t-15.084 6.25z" />
<glyph unicode="&#xe016;" d="M85.334 426.667h341.334q26.5 0 45.25-18.75t18.75-45.25v-213.334q0-26.5-18.75-45.25t-45.25-18.75h-53.334l-32 42.666h85.334q8.834 0 15.084 6.25t6.25 15.084v213.334q0 8.833-6.25 15.083t-15.084 6.25h-341.334q-8.834 0-15.084-6.25t-6.25-15.083v-213.334q0-8.834 6.25-15.084t15.084-6.25h85.334l-32-42.666h-53.334q-26.5 0-45.25 18.75t-18.75 45.25v213.334q0 26.5 18.75 45.25t45.25 18.75zM298.666 42.667l-42.666 56.834-42.666-56.834h85.334zM128-0l128 170.666 128-170.667h-256z" />
<glyph unicode="&#xe017;" d="M170.667 426.667h170.667l42.666-64h64q26.5 0 45.25-19.083t18.75-45.584v-234.334q0-26.5-18.75-45.084t-45.25-18.584h-384q-26.5 0-45.25 18.75t-18.75 45.25v234.334q0 26.5 18.75 45.416t45.25 18.916h64zM256 298.667q21.666 0 41.416-8.5t34-22.75 22.75-34 8.5-41.417-8.5-41.416-22.75-34-34-22.75-41.416-8.5-41.416 8.5-34 22.75-22.75 34-8.5 41.416 8.5 41.417 22.75 34 34 22.75 41.416 8.5zM256 256q-26.5 0-45.25-18.75t-18.75-45.25 18.75-45.25 45.25-18.75 45.25 18.75 18.75 45.25-18.75 45.25-45.25 18.75zM361.166 320l-41.834 64h-125.834l-42.666-64h-86.834q-8.834 0-15.084-6.334t-6.25-15.333v-234.334q0-8.834 6.25-15.084t15.084-6.25h384q9 0 15.166 6.084t6.166 14.916v234.334q0 9-6.334 15.5t-15 6.5h-86.834z" />
<glyph unicode="&#xe018;" d="M64 362.667h234.667q26.5 0 45.25-18.75t18.75-45.25v-38.833l149.333 81.5v-256l-149.333 81.5v-38.834q0-26.5-18.75-45.25t-45.25-18.75h-234.667q-26.5 0-45.25 18.75t-18.75 45.25v170.667q0 26.5 18.75 45.25t45.25 18.75zM298.666 320h-234.667q-8.834 0-15.084-6.25t-6.25-15.084v-170.666q0-8.834 6.25-15.084t15.084-6.25h234.667q8.834 0 15.084 6.25t6.25 15.084v170.667q0 8.834-6.25 15.084t-15.084 6.25zM469.334 157.167v112.334l-102.834-56.167z" />
<glyph unicode="&#xe019;" d="M256 448q47.834 0 91.25-18.584t74.834-50 50-74.833 18.584-91.25-18.584-91.25-50-74.834-74.834-50-91.25-18.584-91.25 18.584-74.834 50-50 74.834-18.584 91.25 18.584 91.25 50 74.833 74.834 50 91.25 18.584zM256 405.333q-39 0-74.584-15.25t-61.25-40.917-40.916-61.25-15.25-74.584 15.25-74.584 40.916-61.25 61.25-40.916 74.584-15.25 74.584 15.25 61.25 40.916 40.916 61.25 15.25 74.584-15.25 74.584-40.916 61.25-61.25 40.917-74.584 15.25zM256 298.667q35.334 0 60.334-25t25-60.334-25-60.334-60.334-25-60.334 25-25 60.334 25 60.334 60.334 25zM256 256q-17.666 0-30.166-12.5t-12.5-30.167 12.5-30.166 30.166-12.5 30.166 12.5 12.5 30.166-12.5 30.167-30.166 12.5z" />
<glyph unicode="&#xe020;" d="M192 426.667h128q26.5 0 45.25-18.75t18.75-45.25v-106.666h42.666q26.5 0 45.25-18.75t18.75-45.25v-85.334q0-26.5-18.75-45.25t-45.25-18.75h-46.334q-6.666-18.834-23.166-30.75t-37.166-11.916h-128q-20.666 0-37.166 11.916t-23.166 30.75h-46.334q-26.5 0-45.25 18.75t-18.75 45.25v85.334q0 26.5 18.75 45.25t45.25 18.75h42.666v106.666q0 26.5 18.75 45.25t45.25 18.75zM320 85.333h-128q-8.834 0-15.084-6.25t-6.25-15.084 6.25-15.084 15.084-6.25h128q8.834 0 15.084 6.25t6.25 15.084-6.25 15.084-15.084 6.25zM426.666 213.333h-341.334q-8.834 0-15.084-6.25t-6.25-15.084v-85.334q0-8.834 6.25-15.084t15.084-6.25h46.334q6.667 18.834 23.166 30.75t37.166 11.916h128q20.666 0 37.166-11.916t23.166-30.75h46.334q8.834 0 15.084 6.25t6.25 15.084v85.334q0 8.834-6.25 15.084t-15.084 6.25zM320 384h-128q-8.834 0-15.084-6.25t-6.25-15.083v-106.667h170.666v106.667q0 8.833-6.25 15.083t-15.084 6.25z" />
<glyph unicode="&#xe021;" d="M85.334 426.667h341.334q26.5 0 45.25-18.75t18.75-45.25v-213.334q0-26.5-18.75-45.25t-45.25-18.75h-149.333v-42.666h64q8.834 0 15.084-6.25t6.25-15.084-6.25-15.084-15.084-6.25h-170.667q-8.833 0-15.083 6.25t-6.25 15.084 6.25 15.084 15.084 6.25h64v42.666h-149.333q-26.5 0-45.25 18.75t-18.75 45.25v213.334q0 26.5 18.75 45.25t45.25 18.75zM426.666 384h-341.334q-8.834 0-15.084-6.25t-6.25-15.083v-213.334q0-8.834 6.25-15.084t15.084-6.25h341.334q8.834 0 15.084 6.25t6.25 15.084v213.334q0 8.833-6.25 15.083t-15.084 6.25z" />
<glyph unicode="&#xe022;" d="M256 448q43.666 0 84.5-5.25t74.916-15.334 54.666-26.834 20.584-37.916v-298.666q0-21.166-20.584-37.916t-54.666-26.834-74.916-15.334-84.5-5.25-84.5 5.25-74.916 15.334-54.666 26.834-20.584 37.916v298.666q0 21.167 20.584 37.917t54.666 26.833 74.916 15.334 84.5 5.25zM448 64.333v97.166q-32.666-16.5-84.166-25t-107.834-8.5-107.834 8.5-84.166 25v-97.5q1-3.666 8.916-8.834t24.25-11.166 38-11 53.5-8.334 67.334-3.334 67.334 3.334 53.5 8.416 38 11.084 24.25 11.166 8.916 9zM448 213.667v97.167q-32.666-16.5-84.166-25t-107.834-8.5-107.834 8.5-84.166 25v-97.5q1-3.666 8.916-8.834t24.25-11.166 38-11 53.5-8.334 67.334-3.334 67.334 3.334 53.416 8.334 37.916 11 24.334 11.25 9 9.084zM256 405.333q-35.166 0-66.834-3.334t-53.166-8.25-37.916-10.833-24.584-11.167-9.5-9.083q1.334-3.834 9.5-9.084t24.584-11.166 37.916-10.833 53.166-8.25 66.834-3.334 66.834 3.334 53.166 8.25 37.916 10.833 24.584 11.167 9.5 9.083q-1.334 3.834-9.5 9.084t-24.584 11.166-37.916 10.834-53.166 8.25-66.834 3.334z" />
<glyph unicode="&#xe023;" d="M256 469.333q26.5 0 45.25-18.75t18.75-45.25v-11q7.834-2.667 18.834-7.667l7.666 7.667q18.834 18.833 45.334 18.833 26.334 0 45.166-18.833t18.834-45.167q0-26.5-18.834-45.333l-7.666-7.667q5-11 7.666-18.833h11q26.5 0 45.25-18.75t18.75-45.25-18.75-45.25-45.25-18.75h-11q-2.666-7.834-7.666-18.834l7.666-7.666q18.834-18.834 18.834-45.334 0-26.334-18.834-45.166t-45.166-18.834q-26.5 0-45.334 18.834l-7.666 7.666q-11-5-18.834-7.666v-11q0-26.5-18.75-45.25t-45.25-18.75-45.25 18.75-18.75 45.25v11q-7.833 2.666-18.834 7.666l-7.667-7.666q-18.833-18.834-45.166-18.834-26.5 0-45.25 18.834t-18.75 45.166q0 26.666 18.666 45.334l7.666 7.666q-5 11-7.666 18.834h-11q-26.5 0-45.25 18.75t-18.75 45.25 18.75 45.25 45.25 18.75h11q2.666 7.833 7.666 18.833l-7.666 7.667q-18.666 18.667-18.666 45.333 0 26.334 18.75 45.167t45.25 18.833q26.334 0 45.166-18.833l7.667-7.667q11 5 18.834 7.667v11q0 26.5 18.75 45.25t45.25 18.75zM256 426.667q-8.834 0-15.084-6.25t-6.25-15.083v-44.167q-37.334-5.333-68.166-28.166l-31.166 31.166q-6.333 6.334-15 6.334-8.834 0-15.084-6.25t-6.25-15.084q0-9 6.166-15.166l31.167-31.166q-22.834-30.834-28.166-68.167h-44.166q-8.834 0-15.084-6.25t-6.25-15.084 6.25-15.084 15.084-6.25h44.166q5.334-37.334 28.166-68.166l-31.166-31.166q-6.166-6.166-6.166-15.166 0-8.834 6.25-15.084t15.084-6.25q8.666 0 15 6.334l31.166 31.166q30.834-22.834 68.166-28.166v-44.166q0-8.834 6.25-15.084t15.084-6.25 15.084 6.25 6.25 15.084v44.166q37.334 5.334 68.166 28.166l31.166-31.166q6.334-6.334 15.166-6.334t15.084 6.25 6.25 15.084-6.334 15.166l-31.166 31.166q22.834 30.834 28.166 68.166h44.166q8.834 0 15.084 6.25t6.25 15.084-6.25 15.084-15.084 6.25h-44.166q-5.334 37.334-28.166 68.167l31.166 31.166q6.334 6.334 6.334 15.167t-6.25 15.083-15.084 6.25-15.166-6.333l-31.166-31.167q-30.834 22.834-68.166 28.167v44.166q0 8.834-6.25 15.084t-15.084 6.25zM256 298.667q35.334 0 60.334-25t25-60.334-25-60.334-60.334-25-60.334 25-25 60.334 25 60.334 60.334 25zM256 256q-17.666 0-30.166-12.5t-12.5-30.167 12.5-30.166 30.166-12.5 30.166 12.5 12.5 30.166-12.5 30.167-30.166 12.5z" />
<glyph unicode="&#xe024;" d="M376.666 426.667q34.834 0 64.25-17.166t46.584-46.584 17.166-64.25q0-25-9.584-48.583t-27.916-41.917l-211.167-211.166-211.167 211.167q-18.334 18.334-27.916 41.917t-9.584 48.584q0 34.833 17.166 64.25t46.584 46.583 64.25 17.166q25.166 0 48.584-9.5t41.916-28l30.166-30.167 30.166 30.167q18.334 18.333 41.916 27.916t48.584 9.583zM376.666 384q-16.666 0-32.334-6.333t-28-18.667l-60.334-60.333-60.334 60.333q-12.334 12.334-28 18.667t-32.334 6.333q-23.334 0-42.916-11.416t-31-31-11.416-42.917q0-16.666 6.334-32.333t18.666-28l181-181 181 181q12.334 12.334 18.666 28t6.334 32.333q0 23.334-11.416 42.917t-31 31-42.916 11.416z" />
<glyph unicode="&#xe025;" d="M213.333 448h192q8.834 0 15.084-6.25t6.25-15.084v-426.666q0-8.834-6.25-15.084t-15.084-6.25-15.084 6.25-6.25 15.084v405.334h-42.666v-405.334q0-8.834-6.25-15.084t-15.084-6.25-15.084 6.25-6.25 15.084v192h-85.334q-34.834 0-64.25 17.166t-46.584 46.584-17.166 64.25 17.166 64.25 46.584 46.583 64.25 17.166zM298.666 234.667v170.667h-85.334q-35.334 0-60.334-25t-25-60.334 25-60.333 60.334-25h85.334z" />
<glyph unicode="&#xe026;" d="M64 362.667h384q8.834 0 15.084-6.25t6.25-15.083-6.25-15.084-15.084-6.25h-384q-8.834 0-15.084 6.25t-6.25 15.084 6.25 15.083 15.084 6.25zM64 106.667h384q8.834 0 15.084-6.25t6.25-15.084-6.25-15.084-15.084-6.25h-384q-8.834 0-15.084 6.25t-6.25 15.084 6.25 15.084 15.084 6.25zM64 192h384q8.834 0 15.084-6.25t6.25-15.084-6.25-15.084-15.084-6.25h-384q-8.834 0-15.084 6.25t-6.25 15.084 6.25 15.084 15.084 6.25zM64 277.333h384q8.834 0 15.084-6.25t6.25-15.084-6.25-15.084-15.084-6.25h-384q-8.834 0-15.084 6.25t-6.25 15.084 6.25 15.084 15.084 6.25z" />
<glyph unicode="&#xe027;" d="M64 362.667h384q8.834 0 15.084-6.25t6.25-15.083-6.25-15.084-15.084-6.25h-384q-8.834 0-15.084 6.25t-6.25 15.084 6.25 15.083 15.084 6.25zM64 106.667h298.666q8.834 0 15.084-6.25t6.25-15.084-6.25-15.084-15.084-6.25h-298.666q-8.834 0-15.084 6.25t-6.25 15.084 6.25 15.084 15.084 6.25zM64 192h384q8.834 0 15.084-6.25t6.25-15.084-6.25-15.084-15.084-6.25h-384q-8.834 0-15.084 6.25t-6.25 15.084 6.25 15.084 15.084 6.25zM64 277.333h298.666q8.834 0 15.084-6.25t6.25-15.084-6.25-15.084-15.084-6.25h-298.666q-8.834 0-15.084 6.25t-6.25 15.084 6.25 15.084 15.084 6.25z" />
<glyph unicode="&#xe028;" d="M64 362.667h384q8.834 0 15.084-6.25t6.25-15.083-6.25-15.084-15.084-6.25h-384q-8.834 0-15.084 6.25t-6.25 15.084 6.25 15.083 15.084 6.25zM106.666 106.667h298.666q8.834 0 15.084-6.25t6.25-15.084-6.25-15.084-15.084-6.25h-298.666q-8.834 0-15.084 6.25t-6.25 15.084 6.25 15.084 15.084 6.25zM64 192h384q8.834 0 15.084-6.25t6.25-15.084-6.25-15.084-15.084-6.25h-384q-8.834 0-15.084 6.25t-6.25 15.084 6.25 15.084 15.084 6.25zM106.666 277.333h298.666q8.834 0 15.084-6.25t6.25-15.084-6.25-15.084-15.084-6.25h-298.666q-8.834 0-15.084 6.25t-6.25 15.084 6.25 15.084 15.084 6.25z" />
<glyph unicode="&#xe029;" d="M64 362.667h384q8.834 0 15.084-6.25t6.25-15.083-6.25-15.084-15.084-6.25h-384q-8.834 0-15.084 6.25t-6.25 15.084 6.25 15.083 15.084 6.25zM149.333 106.667h298.667q8.834 0 15.084-6.25t6.25-15.084-6.25-15.084-15.084-6.25h-298.666q-8.834 0-15.084 6.25t-6.25 15.084 6.25 15.084 15.084 6.25zM64 192h384q8.834 0 15.084-6.25t6.25-15.084-6.25-15.084-15.084-6.25h-384q-8.834 0-15.084 6.25t-6.25 15.084 6.25 15.084 15.084 6.25zM149.333 277.333h298.667q8.834 0 15.084-6.25t6.25-15.084-6.25-15.084-15.084-6.25h-298.666q-8.834 0-15.084 6.25t-6.25 15.084 6.25 15.084 15.084 6.25z" />
<glyph unicode="&#xe030;" d="M106.666 448h341.334v-469.334h-341.334q-26.5 0-45.25 18.75t-18.75 45.25v341.334q0 26.5 18.75 45.25t45.25 18.75zM405.334 21.333v42.666h-298.666q-8.834 0-15.084-6.25t-6.25-15.084 6.25-15.084 15.084-6.25h298.666zM405.334 106.667v298.667h-298.666q-8.834 0-15.084-6.25t-6.25-15.084v-281q10.5 3.666 21.334 3.666h298.666z" />
<glyph unicode="&#xe031;" d="M0 320l256 128 256-128-256-128zM256 58.5l208 104.166 48-24-256-128.167-256 128.167 48 24zM256 149.167l208 104 48-24-256-128-256 128 48 24zM416.666 320l-160.667 80.334-160.667-80.334 160.667-80.333z" />
<glyph unicode="&#xe032;" d="M234.667 448h192q26.5 0 45.25-18.75t18.75-45.25v-192q0-26.5-18.75-45.25t-45.25-18.75h-85.334v-85.334q0-26.5-18.75-45.25t-45.25-18.75h-192q-26.5 0-45.25 18.75t-18.75 45.25v192q0 26.5 18.75 45.25t45.25 18.75h85.334v85.333q0 26.5 18.75 45.25t45.25 18.75zM170.667 192v64h-85.334q-8.834 0-15.084-6.25t-6.25-15.084v-192q0-8.834 6.25-15.084t15.084-6.25h192q8.834 0 15.084 6.25t6.25 15.084v85.334h-64q-26.5 0-45.25 18.75t-18.75 45.25zM426.666 405.333h-192q-8.834 0-15.084-6.25t-6.25-15.084v-192q0-8.834 6.25-15.084t15.084-6.25h192q8.834 0 15.084 6.25t6.25 15.084v192q0 8.834-6.25 15.084t-15.084 6.25z" />
<glyph unicode="&#xe033;" d="M192 426.667h213.333q26.5 0 45.25-18.75t18.75-45.25v-213.334q0-26.5-18.75-45.25t-45.25-18.75h-213.333q-26.5 0-45.25 18.75t-18.75 45.25v213.334q0 26.5 18.75 45.25t45.25 18.75zM85.334 337.667v-273.666q0-8.834 6.25-15.084t15.084-6.25h273.666q-6.666-18.834-23.166-30.75t-37.166-11.916h-213.333q-26.5 0-45.25 18.75t-18.75 45.25v213.334q0 20.667 11.916 37.167t30.75 23.166zM405.334 384h-213.333q-8.833 0-15.083-6.25t-6.25-15.083v-213.334q0-8.834 6.25-15.084t15.084-6.25h213.334q8.834 0 15.084 6.25t6.25 15.084v213.334q0 8.833-6.25 15.083t-15.084 6.25z" />
<glyph unicode="&#xe034;" d="M106.666 469.333h298.666q26.5 0 45.25-18.75t18.75-45.25v-384q0-26.5-18.75-45.25t-45.25-18.75h-298.666q-26.5 0-45.25 18.75t-18.75 45.25v384q0 26.5 18.75 45.25t45.25 18.75zM170.667 106.667h170.667q8.834 0 15.084-6.25t6.25-15.084-6.25-15.084-15.084-6.25h-170.667q-8.833 0-15.083 6.25t-6.25 15.084 6.25 15.084 15.084 6.25zM170.667 192h170.667q8.834 0 15.084-6.25t6.25-15.084-6.25-15.084-15.084-6.25h-170.667q-8.833 0-15.083 6.25t-6.25 15.084 6.25 15.084 15.084 6.25zM405.334 426.667h-298.666q-8.834 0-15.084-6.25t-6.25-15.083v-384q0-8.834 6.25-15.084t15.084-6.25h298.666q8.834 0 15.084 6.25t6.25 15.084v384q0 8.833-6.25 15.083t-15.084 6.25zM170.667 277.333h170.667q8.834 0 15.084-6.25t6.25-15.084-6.25-15.084-15.084-6.25h-170.667q-8.833 0-15.083 6.25t-6.25 15.084 6.25 15.084 15.084 6.25zM170.667 362.667h85.333q8.834 0 15.084-6.25t6.25-15.083-6.25-15.084-15.084-6.25h-85.334q-8.834 0-15.084 6.25t-6.25 15.084 6.25 15.083 15.084 6.25z" />
<glyph unicode="&#xe035;" d="M192 469.333h213.333q26.5 0 45.25-18.75t18.75-45.25v-298.667q0-26.5-18.75-45.25t-45.25-18.75h-213.333q-26.5 0-45.25 18.75t-18.75 45.25v298.667q0 26.5 18.75 45.25t45.25 18.75zM85.334 380.333v-359q0-8.834 6.25-15.084t15.084-6.25h273.666q-6.666-18.834-23.166-30.75t-37.166-11.916h-213.333q-26.5 0-45.25 18.75t-18.75 45.25v298.666q0 20.667 11.916 37.167t30.75 23.166zM405.334 426.667h-213.333q-8.833 0-15.083-6.25t-6.25-15.083v-298.667q0-8.834 6.25-15.084t15.084-6.25h213.334q8.834 0 15.084 6.25t6.25 15.084v298.667q0 8.833-6.25 15.083t-15.084 6.25z" />
<glyph unicode="&#xe036;" d="M213.333 448q39 0 74.583-15.25t61.25-40.916 40.916-61.25 15.25-74.584q0-33.5-10.916-64.167t-31.084-55.666l121.166-121q6.166-6.166 6.166-15.166 0-9.166-6.084-15.25t-15.25-6.084q-9 0-15.166 6.166l-121 121.166q-25-20.166-55.666-31.084t-64.166-10.916q-39 0-74.584 15.25t-61.25 40.916-40.916 61.25-15.25 74.584 15.25 74.584 40.916 61.25 61.25 40.916 74.584 15.25zM213.333 405.333q-30.333 0-58-11.834t-47.666-31.833-31.834-47.667-11.834-58 11.834-58 31.834-47.666 47.666-31.834 58-11.834 58 11.834 47.666 31.834 31.834 47.666 11.834 58-11.834 58-31.834 47.667-47.666 31.833-58 11.834z" />
<glyph unicode="&#xe037;" d="M213.333 448q39 0 74.583-15.25t61.25-40.916 40.916-61.25 15.25-74.584q0-33.5-10.916-64.167t-31.084-55.666l121.166-121q6.166-6.166 6.166-15.166 0-9.166-6.084-15.25t-15.25-6.084q-9 0-15.166 6.166l-121 121.166q-25-20.166-55.666-31.084t-64.166-10.916q-39 0-74.584 15.25t-61.25 40.916-40.916 61.25-15.25 74.584 15.25 74.584 40.916 61.25 61.25 40.916 74.584 15.25zM213.333 405.333q-30.333 0-58-11.834t-47.666-31.833-31.834-47.667-11.834-58 11.834-58 31.834-47.666 47.666-31.834 58-11.834 58 11.834 47.666 31.834 31.834 47.666 11.834 58-11.834 58-31.834 47.667-47.666 31.833-58 11.834zM213.333 341.333q8.833 0 15.083-6.25t6.25-15.084v-42.666h42.666q8.834 0 15.084-6.25t6.25-15.084-6.25-15.084-15.084-6.25h-42.666v-42.667q0-8.834-6.25-15.084t-15.084-6.25-15.084 6.25-6.25 15.084v42.667h-42.666q-8.834 0-15.084 6.25t-6.25 15.084 6.25 15.084 15.084 6.25h42.666v42.666q0 8.834 6.25 15.084t15.084 6.25z" />
<glyph unicode="&#xe038;" d="M213.333 448q39 0 74.583-15.25t61.25-40.916 40.916-61.25 15.25-74.584q0-33.5-10.916-64.167t-31.084-55.666l121.166-121q6.166-6.166 6.166-15.166 0-9.166-6.084-15.25t-15.25-6.084q-9 0-15.166 6.166l-121 121.166q-25-20.166-55.666-31.084t-64.166-10.916q-39 0-74.584 15.25t-61.25 40.916-40.916 61.25-15.25 74.584 15.25 74.584 40.916 61.25 61.25 40.916 74.584 15.25zM213.333 405.333q-30.333 0-58-11.834t-47.666-31.833-31.834-47.667-11.834-58 11.834-58 31.834-47.666 47.666-31.834 58-11.834 58 11.834 47.666 31.834 31.834 47.666 11.834 58-11.834 58-31.834 47.667-47.666 31.833-58 11.834zM149.333 277.333h128q8.834 0 15.084-6.25t6.25-15.084-6.25-15.084-15.084-6.25h-128q-8.834 0-15.084 6.25t-6.25 15.084 6.25 15.084 15.084 6.25z" />
<glyph unicode="&#xe039;" d="M178.333 391.833q8.667 0 15-6.25t6.333-15.084-6.333-15.166l-99.334-99.334h204.666q39 0 74.584-15.166t61.25-40.917 40.916-61.25 15.25-74.666v-21.334q0-8.834-6.25-15.084t-15.084-6.25q-8.666 0-15 6.334t-6.334 15v21.334q0 30.334-11.834 58t-31.834 47.666-47.666 31.834-58 11.834h-204.667l99.333-99.5q6.333-6.334 6.333-15 0-8.834-6.25-15.166t-15.083-6.334-15.166 6.334l-135.667 135.834q-6.166 6.167-6.166 15.167 0 8.834 6.166 15l135.667 135.833q6.333 6.333 15.166 6.333z" />
<glyph unicode="&#xe040;" d="M256 448q47.834 0 91.25-18.584t74.834-50 50-74.833 18.584-91.25-18.584-91.25-50-74.834-74.834-50-91.25-18.584-91.25 18.584-74.834 50-50 74.834-18.584 91.25 18.584 91.25 50 74.833 74.834 50 91.25 18.584zM256 405.333q-39 0-74.584-15.25t-61.25-40.917-40.916-61.25-15.25-74.584 15.25-74.584 40.916-61.25 61.25-40.916 74.584-15.25 74.584 15.25 61.25 40.916 40.916 61.25 15.25 74.584-15.25 74.584-40.916 61.25-61.25 40.917-74.584 15.25zM256 320q8.834 0 15.084-6.25t6.25-15.084v-64h64q8.834 0 15.084-6.25t6.25-15.084-6.25-15.084-15.084-6.25h-64v-64q0-8.834-6.25-15.084t-15.084-6.25-15.084 6.25-6.25 15.084v64h-64q-8.834 0-15.084 6.25t-6.25 15.084 6.25 15.084 15.084 6.25h64v64q0 8.834 6.25 15.084t15.084 6.25z" />
<glyph unicode="&#xe041;" d="M256 448q47.834 0 91.25-18.584t74.834-50 50-74.833 18.584-91.25-18.584-91.25-50-74.834-74.834-50-91.25-18.584-91.25 18.584-74.834 50-50 74.834-18.584 91.25 18.584 91.25 50 74.833 74.834 50 91.25 18.584zM256 405.333q-39 0-74.584-15.25t-61.25-40.917-40.916-61.25-15.25-74.584 15.25-74.584 40.916-61.25 61.25-40.916 74.584-15.25 74.584 15.25 61.25 40.916 40.916 61.25 15.25 74.584-15.25 74.584-40.916 61.25-61.25 40.917-74.584 15.25zM170.667 234.667h170.667q8.834 0 15.084-6.25t6.25-15.084-6.25-15.084-15.084-6.25h-170.667q-8.833 0-15.083 6.25t-6.25 15.084 6.25 15.084 15.084 6.25z" />
<glyph unicode="&#xe042;" d="M256 448q47.834 0 91.25-18.584t74.834-50 50-74.833 18.584-91.25-18.584-91.25-50-74.834-74.834-50-91.25-18.584-91.25 18.584-74.834 50-50 74.834-18.584 91.25 18.584 91.25 50 74.833 74.834 50 91.25 18.584zM256 405.333q-39 0-74.584-15.25t-61.25-40.917-40.916-61.25-15.25-74.584 15.25-74.584 40.916-61.25 61.25-40.916 74.584-15.25 74.584 15.25 61.25 40.916 40.916 61.25 15.25 74.584-15.25 74.584-40.916 61.25-61.25 40.917-74.584 15.25zM327.834 277.5q8.834 0 15.084-6.25t6.25-15.084-6.334-15.166l-90.5-90.5q-6.167-6.166-15-6.166-9 0-15.166 6.166l-45.334 45.166q-6.167 6.166-6.167 15.166 0 8.834 6.25 15.084t15.083 6.25 15.166-6.333l30.166-30.167 75.334 75.5q6.334 6.334 15.166 6.334z" />
<glyph unicode="&#xe043;" d="M256 448q47.834 0 91.25-18.584t74.834-50 50-74.833 18.584-91.25-18.584-91.25-50-74.834-74.834-50-91.25-18.584-91.25 18.584-74.834 50-50 74.834-18.584 91.25 18.584 91.25 50 74.833 74.834 50 91.25 18.584zM256 405.333q-39 0-74.584-15.25t-61.25-40.917-40.916-61.25-15.25-74.584 15.25-74.584 40.916-61.25 61.25-40.916 74.584-15.25 74.584 15.25 61.25 40.916 40.916 61.25 15.25 74.584-15.25 74.584-40.916 61.25-61.25 40.917-74.584 15.25zM316.334 295.167q8.834 0 15.166-6.25t6.334-15.083-6.334-15.167l-45.334-45.334 45.334-45.166q6.334-6.334 6.334-15 0-8.834-6.334-15.084t-15.166-6.25-15 6.166l-45.334 45.166-45.166-45.166q-6.167-6.166-15.166-6.166-8.834 0-15.084 6.166t-6.25 15q0 9 6.167 15.166l45.333 45.166-45.334 45.334q-6.167 6.166-6.167 15t6.25 15.166 15.083 6.334 15.166-6.334l45.166-45.333 45.334 45.333q6.334 6.334 15 6.334z" />
<glyph unicode="&#xe044;" d="M85.334 448h341.334q26.5 0 45.25-18.75t18.75-45.25v-341.334q0-26.5-18.75-45.25t-45.25-18.75h-341.334q-26.5 0-45.25 18.75t-18.75 45.25v341.334q0 26.5 18.75 45.25t45.25 18.75zM426.666 405.333h-341.334q-8.834 0-15.084-6.25t-6.25-15.084v-341.334q0-8.834 6.25-15.084t15.084-6.25h341.334q8.834 0 15.084 6.25t6.25 15.084v341.334q0 8.834-6.25 15.084t-15.084 6.25zM256 320q8.834 0 15.084-6.25t6.25-15.084v-64h64q8.834 0 15.084-6.25t6.25-15.084-6.25-15.084-15.084-6.25h-64v-64q0-8.834-6.25-15.084t-15.084-6.25-15.084 6.25-6.25 15.084v64h-64q-8.834 0-15.084 6.25t-6.25 15.084 6.25 15.084 15.084 6.25h64v64q0 8.834 6.25 15.084t15.084 6.25z" />
<glyph unicode="&#xe045;" d="M85.334 448h341.334q26.5 0 45.25-18.75t18.75-45.25v-341.334q0-26.5-18.75-45.25t-45.25-18.75h-341.334q-26.5 0-45.25 18.75t-18.75 45.25v341.334q0 26.5 18.75 45.25t45.25 18.75zM426.666 405.333h-341.334q-8.834 0-15.084-6.25t-6.25-15.084v-341.334q0-8.834 6.25-15.084t15.084-6.25h341.334q8.834 0 15.084 6.25t6.25 15.084v341.334q0 8.834-6.25 15.084t-15.084 6.25zM170.667 234.667h170.667q8.834 0 15.084-6.25t6.25-15.084-6.25-15.084-15.084-6.25h-170.667q-8.833 0-15.083 6.25t-6.25 15.084 6.25 15.084 15.084 6.25z" />
<glyph unicode="&#xe046;" d="M85.334 448h341.334q26.5 0 45.25-18.75t18.75-45.25v-341.334q0-26.5-18.75-45.25t-45.25-18.75h-341.334q-26.5 0-45.25 18.75t-18.75 45.25v341.334q0 26.5 18.75 45.25t45.25 18.75zM426.666 405.333h-341.334q-8.834 0-15.084-6.25t-6.25-15.084v-341.334q0-8.834 6.25-15.084t15.084-6.25h341.334q8.834 0 15.084 6.25t6.25 15.084v341.334q0 8.834-6.25 15.084t-15.084 6.25zM341.334 287.5q8.666 0 15-6.25t6.334-15.084-6.334-15.166l-105.5-105.5q-6.167-6.166-15-6.166-9 0-15.166 6.166l-60.334 60.334q-6.167 6.166-6.167 15.166 0 8.834 6.25 15.084t15.083 6.25q8.666 0 15-6.333l45.166-45.334 90.5 90.5q6.334 6.333 15.166 6.333z" />
<glyph unicode="&#xe047;" d="M85.334 448h341.334q26.5 0 45.25-18.75t18.75-45.25v-341.334q0-26.5-18.75-45.25t-45.25-18.75h-341.334q-26.5 0-45.25 18.75t-18.75 45.25v341.334q0 26.5 18.75 45.25t45.25 18.75zM426.666 405.333h-341.334q-8.834 0-15.084-6.25t-6.25-15.084v-341.334q0-8.834 6.25-15.084t15.084-6.25h341.334q8.834 0 15.084 6.25t6.25 15.084v341.334q0 8.834-6.25 15.084t-15.084 6.25zM316.334 295.167q8.834 0 15.166-6.333t6.334-15.167-6.334-15.166l-45.334-45.167 45.334-45.166q6.334-6.334 6.334-15.166t-6.334-15.084-15.166-6.25-15 6.166l-45.334 45.334-45.334-45.334q-6-6.166-15-6.166-9.166 0-15.25 6.084t-6.083 15.25q0 9 6.167 15.166l45.334 45.166-45.334 45.167q-6.167 6.166-6.167 15.166 0 8.834 6.25 15.167t15.083 6.333q9 0 15-6.333l45.334-45.334 45.334 45.334q6.334 6.333 15 6.333z" />
<glyph unicode="&#xe048;" d="M405.334 277.333q8.834 0 15.084-6.25t6.25-15.084v-42.667q0-32-11.584-61.584t-31.5-51.834-47.5-37.166-58.75-18.75v-44h64q8.834 0 15.084-6.25t6.25-15.084-6.25-15.084-15.084-6.25h-170.667q-8.833 0-15.083 6.25t-6.25 15.083 6.25 15.084 15.084 6.25h64v44q-31.166 3.834-58.75 18.75t-47.5 37.166-31.5 51.834-11.584 61.584v42.667q0 8.833 6.25 15.083t15.084 6.25 15.084-6.25 6.25-15.083v-42.667q0-34.834 17.166-64.25t46.584-46.584 64.25-17.166 64.25 17.166 46.584 46.584 17.166 64.25v42.667q0 8.833 6.25 15.083t15.084 6.25zM256 469.333q35.334 0 60.334-25t25-60.334v-170.666q0-35.334-25-60.334t-60.334-25-60.334 25-25 60.334v170.667q0 35.334 25 60.334t60.334 25zM256 426.667q-17.666 0-30.166-12.5t-12.5-30.166v-170.667q0-17.666 12.5-30.166t30.166-12.5 30.166 12.5 12.5 30.166v170.667q0 17.666-12.5 30.166t-30.166 12.5z" />
<glyph unicode="&#xe049;" d="M256 405.333q39 0 74.584-15.25t61.25-40.917 40.916-61.25 15.25-74.584-15.25-74.584-40.916-61.25-61.25-40.916-74.584-15.25-74.584 15.25-61.25 40.916-40.916 61.25-15.25 74.584 15.25 74.584 40.916 61.25 61.25 40.917 74.584 15.25zM256 362.667q-30.334 0-58-11.833t-47.666-31.834-31.834-47.666-11.834-58 11.834-58 31.834-47.666 47.666-31.834 58-11.834 58 11.834 47.666 31.834 31.834 47.666 11.834 58-11.834 58-31.834 47.666-47.666 31.834-58 11.834z" />
<glyph unicode="&#xe050;" d="M362.666 384q8.834 0 15.084-6.25t6.25-15.083q0-9-6.166-15.167l-134.333-134.166 134.333-134.333q6.166-6.166 6.166-15.166 0-8.834-6.25-15t-15.084-6.166q-9 0-15.166 6.166l-149.333 149.334q-6.167 6.5-6.167 15.166 0 8.5 6.167 15l149.333 149.333q6.334 6.334 15.166 6.334zM128 384q8.834 0 15.084-6.25t6.25-15.083v-298.666q0-8.834-6.25-15.084t-15.084-6.25-15.084 6.25-6.25 15.084v298.666q0 8.834 6.25 15.084t15.084 6.25z" />
<glyph unicode="&#xe051;" d="M384 384q8.834 0 15.084-6.25t6.25-15.083-6.334-15.167l-134.167-134.166 134.167-134.167q6.334-6.334 6.334-15.166t-6.25-15.084-15.084-6.25q-9 0-15.166 6.166l-149.333 149.334q-6.167 6.166-6.167 15.166t6.167 15.167l149.333 149.333q6.166 6.166 15.166 6.166zM256 384q8.834 0 15.084-6.25t6.25-15.083-6.334-15.167l-134.167-134.166 134.167-134.167q6.334-6.334 6.334-15.166t-6.25-15.084-15.084-6.25q-9 0-15.166 6.166l-149.333 149.334q-6.166 6.166-6.166 15.166t6.166 15.167l149.333 149.333q6.167 6.166 15.166 6.166z" />
<glyph unicode="&#xe052;" d="M85.334 21.333v384l320-192zM322.334 213.333l-194.333 116.666v-233.334z" />
<glyph unicode="&#xe053;" d="M341.334 405.333q26.5 0 45.25-18.75t18.75-45.25v-256q0-26.5-18.75-45.25t-45.25-18.75-45.25 18.75-18.75 45.25v256q0 26.5 18.75 45.25t45.25 18.75zM170.667 405.333q26.5 0 45.25-18.75t18.75-45.25v-256q0-26.5-18.75-45.25t-45.25-18.75-45.25 18.75-18.75 45.25v256q0 26.5 18.75 45.25t45.25 18.75zM170.667 362.667q-8.833 0-15.083-6.25t-6.25-15.083v-256q0-8.834 6.25-15.084t15.084-6.25 15.084 6.25 6.25 15.084v256q0 8.833-6.25 15.083t-15.084 6.25zM341.334 362.667q-8.834 0-15.084-6.25t-6.25-15.083v-256q0-8.834 6.25-15.084t15.084-6.25 15.084 6.25 6.25 15.084v256q0 8.833-6.25 15.083t-15.084 6.25z" />
<glyph unicode="&#xe054;" d="M128 405.333h256q26.5 0 45.25-18.75t18.75-45.25v-256q0-26.5-18.75-45.25t-45.25-18.75h-256q-26.5 0-45.25 18.75t-18.75 45.25v256q0 26.5 18.75 45.25t45.25 18.75zM384 362.667h-256q-8.834 0-15.084-6.25t-6.25-15.083v-256q0-8.834 6.25-15.084t15.084-6.25h256q8.834 0 15.084 6.25t6.25 15.084v256q0 8.833-6.25 15.083t-15.084 6.25z" />
<glyph unicode="&#xe055;" d="M234.667 384q8.833 0 15-6.166l149.333-149.334q6.334-6.334 6.334-15.167t-6.334-15.166l-149.333-149.334q-6.167-6.166-15-6.166t-15.083 6.25-6.25 15.084q0 9 6.167 15.166l134.167 134.167-134.167 134.167q-6.167 6.166-6.167 15.166 0 9.167 6.083 15.25t15.25 6.084zM106.666 384q8.834 0 15-6.166l149.334-149.334q6.334-6.334 6.334-15.167t-6.334-15.166l-149.333-149.334q-6.166-6.166-15-6.166t-15.084 6.25-6.25 15.084q0 9 6.166 15.166l134.167 134.167-134.167 134.167q-6.166 6.166-6.166 15.166 0 9.167 6.084 15.25t15.25 6.084z" />
<glyph unicode="&#xe056;" d="M128 384q8.834 0 15.166-6.333l149.334-149.333q6.166-6.167 6.166-15 0-9-6.166-15.166l-149.333-149.334q-6.167-6.166-15.167-6.166-8.834 0-15.084 6.166t-6.25 15q0 8.666 6.166 15.166l134.333 134.334-134.333 134.167q-6.166 6.5-6.166 15.166 0 8.834 6.25 15.084t15.084 6.25zM362.666 384q8.834 0 15.084-6.25t6.25-15.083v-298.666q0-8.834-6.25-15.084t-15.084-6.25-15.084 6.25-6.25 15.084v298.666q0 8.834 6.25 15.084t15.084 6.25z" />
<glyph unicode="&#xe057;" d="M384 469.333q8.834 0 15.166-6.333l85.334-85.334q6.166-6.167 6.166-15 0-9-6.166-15.167l-85.334-85.333q-6.166-6.167-15.166-6.167-8.834 0-15.084 6.25t-6.25 15.084q0 8.5 6.166 15l49 49h-33.834q-30 0-56.334-13.084t-44.166-35.75q-27.5-35-27.5-79.166 0-44.5-21.334-82.666-11.334-20.5-27.5-36.834-23.666-24.166-55.166-37.666t-66.666-13.5h-42.666q-8.834 0-15.084 6.25t-6.25 15.084 6.25 15.084 15.084 6.25h42.666q30.166 0 56.416 13t44.084 35.666q27.5 35 27.5 79.334 0 44.5 21.334 82.667 11.5 20.666 27.5 36.666 23.666 24.167 55.166 37.75t66.666 13.584h33.834l-49 48.834q-6.166 6.5-6.166 15.166 0 8.834 6.25 15.084t15.084 6.25zM384 170.667q8.834 0 15.166-6.334l85.334-85.334q6.166-6.166 6.166-15.166 0-8.834-6.166-15l-85.334-85.334q-6.166-6.166-15.166-6.166-8.834 0-15.084 6.166t-6.25 15q0 8.666 6.166 15.166l49 49h-33.834q-35.166 0-66.666 13.5t-55.166 37.666q12.834 18.834 21.334 40.166 17.834-22.666 44.084-35.666t56.416-13h33.834l-49 48.834q-6.166 6.5-6.166 15.166 0 8.834 6.25 15.084t15.084 6.25zM42.666 384h42.666q35.166 0 66.667-13.583t55.166-37.75q-13-19.167-21.334-40.167-17.834 22.667-44.166 35.75t-56.334 13.084h-42.666q-8.834 0-15.084 6.25t-6.25 15.083 6.25 15.084 15.084 6.25z" />
<glyph unicode="&#xe058;" d="M21.334 192h128q8.834 0 15.084-6.25t6.25-15.084-6.25-15.084-15.084-6.25h-72l58-56.666q24.666-24.834 56.5-37.5 30.5-12.5 64.166-12.5t64.166 12.5q16.666 6.834 31.25 16.75t24.834 20.334 18.666 22.334 13.5 21.916 8.584 20q3 8.334 11 12.084t16.166 0.916q8.334-3 12.084-10.916t0.916-16.084q-7-21.334-20.334-42.334t-30-37.666q-30.666-30.666-70.5-46.834-38.666-15.666-80.334-15.666-41.5 0-80.334 15.666-39.834 16.166-70.5 46.834l-62.5 61.166v-81q0-8.834-6.25-15.084t-15.084-6.25-15.084 6.25-6.25 15.084v128q0 8.834 6.25 15.084t15.084 6.25zM256 426.667q41.5 0 80.334-15.666 39.834-16.166 70.5-46.834l0.334-0.333 62.166-60.834v81q0 8.834 6.25 15.084t15.084 6.25 15.084-6.25 6.25-15.084v-128q0-8.834-6.25-15.084t-15.084-6.25h-128q-8.834 0-15.084 6.25t-6.25 15.084 6.25 15.084 15.084 6.25h72l-58 56.666q-24.334 24.334-55.416 37.167t-65.25 12.833q-33.666 0-64.166-12.5-31.834-12.666-56.5-37.5-10-8.833-21.916-26.916t-18.416-36.917q-3-8.333-11-12.083t-16.166-0.917q-8.334 3-12.084 10.917t-0.916 16.083q7 21.334 20.334 42.334t30 37.666q30.666 30.667 70.5 46.834 38.834 15.666 80.334 15.666z" />
<glyph unicode="&#xe059;" d="M85.334 426.667h106.666l42.666-64h192q26.5 0 45.25-18.75t18.75-45.25v-234.666q0-26.5-18.75-45.25t-45.25-18.75h-341.334q-26.5 0-45.25 18.75t-18.75 45.25v298.666q0 26.5 18.75 45.25t45.25 18.75zM211.833 320l-41.167 64h-85.334q-8.834 0-15.084-6.25t-6.25-15.084v-298.666q0-8.834 6.25-15.084t15.084-6.25h341.334q8.834 0 15.084 6.25t6.25 15.084v234.667q0 8.834-6.25 15.084t-15.084 6.25h-214.833z" />
<glyph unicode="&#xe060;" d="M256 448q37.5 0 72.916-10.5t65-29.834 53.334-45.584 39.5-58.916 21.75-68.5q3.5-20.667 3.5-42.667h-234.667v-128q0-17.666 12.5-30.166t30.166-12.5 30.166 12.5 12.5 30.166q0 8.834 6.25 15.084t15.084 6.25 15.084-6.25 6.25-15.084q0-35.334-25-60.334t-60.334-25-60.334 25-25 60.334v128h-234.667q0 22 3.5 42.667 6 35.833 21.75 68.5t39.5 58.916 53.334 45.584 65 29.833 72.916 10.5zM256 405.333q-50.666 0-95.166-22.334t-74.25-61.166-39.584-87.167h418q-9.834 48.334-39.584 87.167t-74.25 61.166-95.166 22.334z" />
<glyph unicode="&#xe061;" d="M256 426.667q7.166 0 14.166-0.5-14.166-30.5-14.166-63.5 0-30.333 11.834-58t31.834-47.666 47.666-31.834 58-11.834q33 0 63.5 14.167 0.5-7 0.5-14.167 0-29-7.666-56.666t-21.416-51.084-33.416-43.084-43.084-33.416-51.084-21.416-56.666-7.666-56.666 7.666-51.084 21.416-43.084 33.416-33.416 43.084-21.416 51.084-7.666 56.666 7.666 56.666 21.416 51.084 33.416 43.083 43.084 33.417 51.084 21.416 56.666 7.666zM214 378.833q-27.5-7-51.25-22.667t-40.834-37.166-26.834-48.916-9.75-56.75q0-34.666 13.5-66.25t36.417-54.5 54.5-36.416 66.25-13.5q29.334 0 56.75 9.75t48.916 26.834 37.166 40.834 22.666 51.25q-7.166-0.666-16.166-0.666-39 0-74.5 15.25t-61.25 41-41 61.25-15.25 74.5q0 9 0.667 16.166z" />
<glyph unicode="&#xe062;" d="M245.333 469.333q30.833 0 52.75-21.916t21.916-52.75v-229.5q19.834-16.5 31.25-40.084t11.416-50.416q0-23.834-9.25-45.584t-25-37.5-37.5-25-45.584-9.25-45.584 9.25-37.5 25-25 37.5-9.25 45.584q0 26.834 11.416 50.416t31.25 40.084v229.5q0 30.834 21.916 52.75t52.75 21.917zM245.333 426.667q-13.333 0-22.667-9.334t-9.334-22.666v-252.667q-19.166-9.166-30.916-27.25t-11.75-40.084q0-30.834 21.916-52.75t52.75-21.916 52.75 21.916 21.916 52.75q0 22-11.75 40.084t-30.916 27.25v252.667q0 13.333-9.334 22.666t-22.666 9.334z" />
<glyph unicode="&#xe063;" d="M120.166 306.5l135.834 135.833 135.833-135.833q27.666-27.666 41.916-63t14.25-72.834q0-37.666-14.25-72.834t-41.916-62.834-63-42-72.834-14.334-72.834 14.334-63 42q-27.5 27.666-41.834 62.916t-14.334 72.75 14.334 72.834 41.834 63zM361.666 276.333l-105.666 105.666-105.666-105.666q-21.334-21.5-32.5-49t-11.166-56.667 11.084-56.584 32.583-48.916 49-32.666 56.666-11.166q29.334 0 56.75 11.166t48.916 32.666 32.584 48.834 11.084 56.666q0 29.166-11.084 56.667t-32.584 49z" />
<glyph unicode="&#xe064;" d="M256 341.333q34.834 0 64.25-17.167t46.584-46.583 17.166-64.25-17.166-64.25-46.584-46.584-64.25-17.166-64.25 17.166-46.584 46.584-17.166 64.25 17.166 64.25 46.584 46.583 64.25 17.167zM120.334 99q8.834 0 15.084-6.334t6.25-15.166q0-8.666-6.333-15l-30.166-30.166q-6.334-6.334-15-6.334-8.834 0-15.084 6.25t-6.25 15.084q0 9 6.166 15.166l30.166 30.166q6.334 6.334 15.166 6.334zM256 42.667q8.834 0 15.084-6.25t6.25-15.084v-42.666q0-8.834-6.25-15.083t-15.084-6.25-15.084 6.25-6.25 15.083v42.666q0 8.834 6.25 15.084t15.084 6.25zM21.334 234.667h42.666q8.834 0 15.084-6.25t6.25-15.084-6.25-15.084-15.084-6.25h-42.666q-8.834 0-15.084 6.25t-6.25 15.084 6.25 15.084 15.084 6.25zM256 298.667q-35.334 0-60.334-25t-25-60.334 25-60.334 60.334-25 60.334 25 25 60.334-25 60.334-60.334 25zM391.834 99q8.666 0 15-6.334l30.166-30.166q6.334-6.334 6.334-15.166 0-8.666-6.334-15t-15-6.334q-8.834 0-15.166 6.334l-30.166 30.166q-6.166 6.166-6.166 15t6.25 15.166 15.084 6.334zM90.166 400.667q8.666 0 15-6.333l30.166-30.167q6.333-6.333 6.333-15 0-8.833-6.25-15.083t-15.084-6.25q-9 0-15.166 6.166l-30.166 30.166q-6.166 6.167-6.166 15.167 0 8.833 6.25 15.083t15.084 6.25zM256 469.333q8.834 0 15.084-6.25t6.25-15.083v-42.666q0-8.834-6.25-15.084t-15.084-6.25-15.084 6.25-6.25 15.084v42.666q0 8.833 6.25 15.083t15.084 6.25zM448 234.667h42.666q8.834 0 15.084-6.25t6.25-15.084-6.25-15.084-15.084-6.25h-42.666q-8.834 0-15.084 6.25t-6.25 15.084 6.25 15.084 15.084 6.25zM422 400.667q8.666 0 15-6.333t6.334-15q0-8.834-6.334-15.167l-30.166-30.166q-6.166-6.166-15-6.166-9.166 0-15.25 6.083t-6.084 15.25q0 8.833 6.166 15l30.166 30.166q6.334 6.334 15.166 6.334z" />
<glyph unicode="&#xe065;" d="M320 405.333q39 0 74.584-15.25t61.25-40.917 40.916-61.25 15.25-74.584-15.25-74.584-40.916-61.25-61.25-40.916-74.584-15.25h-192q-34.834 0-64.25 17.166t-46.584 46.584-17.166 64.25 17.166 64.25 46.584 46.584 64.25 17.167h11q13.166 37.166 39.666 66.083t63.416 45.417 77.916 16.5zM320 362.667q-27.666 0-53.25-9.916t-45-26.916-32.5-40.667-16.916-50.5h-44.334q-35.334 0-60.334-25t-25-60.334 25-60.334 60.334-25h192q30.334 0 58 11.834t47.666 31.834 31.834 47.666 11.834 58-11.834 58-31.834 47.666-47.666 31.834-58 11.834z" />
<glyph unicode="&#xe066;" d="M320 426.667q39 0 74.584-15.25t61.25-40.916 40.916-61.25 15.25-74.583q0-36.334-13.25-69.834t-36-58.666-54.334-41.75-67.084-20.584v43q35.834 5.166 65.084 25.916t46.084 52.834 16.834 69.084q0 30.334-11.834 58t-31.834 47.667-47.666 31.833-58 11.834q-27.666 0-53.25-9.916t-45-26.917-32.5-40.666-16.916-50.5h-44.334q-35.334 0-60.334-25t-25-60.334q0-19.334 7.584-35.834t19.916-27.084 27.416-16.5 30.416-5.916h85.334v-42.666h-85.334q-34.834 0-64.25 17.166t-46.584 46.584-17.166 64.25 17.166 64.25 46.584 46.584 64.25 17.166h11q13.166 37.167 39.666 66.084t63.416 45.416 77.916 16.5zM277.334 256q8.834 0 15.166-6.333l64-64q6.166-6.166 6.166-15 0-9.166-6.084-15.25t-15.25-6.084q-9 0-15.166 6.166l-27.5 27.666v-140.5q0-8.834-6.25-15.084t-15.084-6.25-15.084 6.25-6.25 15.084v140.5l-27.5-27.666q-6.167-6.166-15.166-6.166-8.834 0-15.084 6.25t-6.25 15.084q0 8.5 6.167 15l64 64q6.334 6.333 15.166 6.333z" />
<glyph unicode="&#xe067;" d="M320 426.667q39 0 74.584-15.25t61.25-40.916 40.916-61.25 15.25-74.583q0-42.5-17.5-80.334t-48.334-64.584-70-38.75l10.5 10.334q9 9.166 14 21.334 4.666 11.334 4.666 24.666 0 3.334-0.166 4.666 29.666 20.666 46.916 52.916t17.25 69.75q0 30.333-11.834 58t-31.834 47.666-47.666 31.834-58 11.834q-27.666 0-53.25-9.917t-45-26.916-32.5-40.667-16.916-50.5h-44.334q-35.334 0-60.334-25t-25-60.334q0-19.334 7.584-35.834t19.916-27.084 27.416-16.5 30.416-5.916h25q5.833-14.666 15-24l18.834-18.666h-58.834q-34.834 0-64.25 17.166t-46.584 46.584-17.166 64.25 17.166 64.25 46.584 46.583 64.25 17.167h11q13.166 37.166 39.666 66.083t63.416 45.417 77.916 16.5zM277.334 256q8.834 0 15.084-6.25t6.25-15.083v-140.5l27.5 27.666q6.166 6.166 15.166 6.166 9.166 0 15.25-6.084t6.084-15.25q0-9-6.166-15.166l-64-64q-6.166-6.166-15.166-6.166t-15.166 6.166l-64 64q-6.167 6.5-6.167 15.166 0 8.834 6.25 15.084t15.083 6.25q9 0 15.166-6.166l27.5-27.666v140.5q0 8.834 6.25 15.084t15.084 6.25z" />
<glyph unicode="&#xe068;" d="M106.666 469.333h298.666q26.5 0 45.25-18.75t18.75-45.25v-298.667q0-26.5-18.75-45.25t-45.25-18.75h-85.334v42.666h85.334q8.834 0 15.084 6.25t6.25 15.084v298.667q0 8.833-6.25 15.083t-15.084 6.25h-298.666q-8.834 0-15.084-6.25t-6.25-15.083v-298.667q0-8.834 6.25-15.084t15.084-6.25h85.334v-42.666h-85.334q-26.5 0-45.25 18.75t-18.75 45.25v298.667q0 26.5 18.75 45.25t45.25 18.75zM256 320q9 0 15.166-6.166l85.334-85.334q6.166-6.167 6.166-15.167 0-8.834-6.25-15.084t-15.084-6.25q-8.666 0-15.166 6.166l-48.834 49v-268.5q0-8.834-6.25-15.084t-15.084-6.25-15.084 6.25-6.25 15.083v268.5l-48.834-49q-6.5-6.166-15.166-6.166-8.834 0-15.084 6.25t-6.25 15.084q0 8.666 6.167 15.167l85.333 85.333q6.167 6.167 15.166 6.167z" />
<glyph unicode="&#xe069;" d="M320 384h85.334q26.5 0 45.25-18.75t18.75-45.25v-298.666q0-26.5-18.75-45.25t-45.25-18.75h-298.666q-26.5 0-45.25 18.75t-18.75 45.25v298.666q0 26.5 18.75 45.25t45.25 18.75h85.334v-42.666h-85.334q-8.834 0-15.084-6.25t-6.25-15.084v-298.666q0-8.834 6.25-15.084t15.084-6.25h298.666q8.834 0 15.084 6.25t6.25 15.084v298.666q0 8.834-6.25 15.084t-15.084 6.25h-85.334v42.666zM256 469.333q8.834 0 15.084-6.25t6.25-15.083v-268.5l48.834 49q6.166 6.167 15.166 6.167 9.166 0 15.25-6.083t6.084-15.25q0-9-6.166-15.166l-85.334-85.334q-6.166-6.166-15.166-6.166t-15.166 6.166l-85.334 85.334q-6.167 6.5-6.167 15.166 0 8.834 6.25 15.084t15.083 6.25q9 0 15.166-6.167l48.834-49v268.5q0 8.834 6.25 15.084t15.084 6.25z" />
<glyph unicode="&#xe070;" d="M0 234.667l512 234.666-234.667-512-64 213.333zM285.666 78l139.666 304.667-304.666-139.667 127-38z" />
<glyph unicode="&#xe071;" d="M256 448q47.834 0 91.25-18.584t74.834-50 50-74.833 18.584-91.25-18.584-91.25-50-74.834-74.834-50-91.25-18.584-91.25 18.584-74.834 50-50 74.834-18.584 91.25 18.584 91.25 50 74.833 74.834 50 91.25 18.584zM277.334 404.167v-62.833q0-8.834-6.25-15.084t-15.084-6.25-15.084 6.25-6.25 15.084v62.833q-33-3.666-62.584-18.166t-51.916-36.834-36.834-51.916-18.166-62.583h62.834q8.833 0 15.083-6.25t6.25-15.084-6.25-15.084-15.084-6.25h-62.834q3.666-33 18.166-62.584t36.834-51.916 51.917-36.834 62.584-18.166v62.834q0 8.834 6.25 15.084t15.084 6.25 15.084-6.25 6.25-15.084v-62.834q33 3.666 62.584 18.166t51.916 36.834 36.834 51.916 18.166 62.584h-62.834q-8.834 0-15.084 6.25t-6.25 15.084 6.25 15.084 15.084 6.25h62.834q-3.666 33-18.166 62.584t-36.834 51.916-51.916 36.834-62.584 18.166z" />
<glyph unicode="&#xe072;" d="M341.334 362.667l170.666 106.666v-405.334l-170.667-106.666-170.667 106.666-170.667-106.666v405.333l170.667 106.667zM149.333 101v304.5l-106.666-66.666v-304.5zM320 325.667l-128 80.166v-304.834l128-80v304.667zM469.334 87.667v304.667l-106.666-66.667v-304.666z" />
<glyph unicode="&#xe073;" d="M64 362.667h320q26.5 0 45.25-18.75t18.75-45.25q26.5 0 45.25-18.75t18.75-45.25v-42.667q0-26.5-18.75-45.25t-45.25-18.75q0-26.5-18.75-45.25t-45.25-18.75h-320q-26.5 0-45.25 18.75t-18.75 45.25v170.667q0 26.5 18.75 45.25t45.25 18.75zM384 320h-320q-8.834 0-15.084-6.25t-6.25-15.084v-170.666q0-8.834 6.25-15.084t15.084-6.25h320q8.834 0 15.084 6.25t6.25 15.084v170.667q0 8.834-6.25 15.084t-15.084 6.25zM448 256v-85.334q8.834 0 15.084 6.25t6.25 15.084v42.667q0 8.834-6.25 15.084t-15.084 6.25z" />
<glyph unicode="&#xe074;" d="M256 469.333q34.834 0 64.25-17.166t46.584-46.583 17.166-64.25v-64q0-26.667-10.334-50.5t-28.834-41.5q48.666-7.666 86.5-22.584t59.25-35.25 21.416-42.834v-42q0-26.5-18.75-45.25t-45.25-18.75h-384q-26.5 0-45.25 18.75t-18.75 45.25v42.166q0 22.5 21.416 42.834t59.166 35.25 86.417 22.416q-18.334 17.834-28.666 41.584t-10.334 50.416v64q0 34.834 17.166 64.25t46.583 46.584 64.25 17.166zM256 149.333q-46.334 0-89.416-7.416t-75.084-20.75q-12.834-5.334-22.916-11.334t-15.334-10.834-7.916-8.416-2.666-5.75v-42.166q0-8.834 6.25-15.084t15.084-6.25h384q8.834 0 15.084 6.25t6.25 15.084v42q0 2.166-2.666 5.75t-7.916 8.416-15.334 10.834-22.916 11.5q-32 13.334-75.084 20.75t-89.416 7.416zM256 426.667q-35.334 0-60.334-25t-25-60.333v-64q0-35.334 25-60.334t60.334-25 60.334 25 25 60.334v64q0 35.333-25 60.333t-60.334 25z" />
<glyph unicode="&#xe075;" d="M213.333 426.667h85.333q26.5 0 45.25-18.75t18.75-45.25v-21.333h64q26.5 0 45.25-18.75t18.75-45.25v-213.334q0-26.5-18.75-45.25t-45.25-18.75h-341.334q-26.5 0-45.25 18.75t-18.75 45.25v213.334q0 26.5 18.75 45.25t45.25 18.75h64v21.333q0 26.5 18.75 45.25t45.25 18.75zM106.666 42.667v256h-21.334q-8.834 0-15.084-6.25t-6.25-15.083v-213.334q0-8.834 6.25-15.084t15.084-6.25h21.334zM362.666 42.667v256h-213.333v-256h213.333zM426.666 298.667h-21.334v-256h21.334q8.834 0 15.084 6.25t6.25 15.084v213.334q0 8.834-6.25 15.084t-15.084 6.25zM298.666 384h-85.334q-8.834 0-15.084-6.25t-6.25-15.083v-21.333h128v21.333q0 8.834-6.25 15.084t-15.084 6.25z" />
<glyph unicode="&#xe076;" d="M85.334 448h341.334q26.5 0 45.25-18.75t18.75-45.25v-234.666q0-26.5-18.75-45.25t-45.25-18.75h-170.667l-149.333-106.666v106.666h-21.334q-26.5 0-45.25 18.75t-18.75 45.25v234.667q0 26.5 18.75 45.25t45.25 18.75zM426.666 405.333h-341.334q-8.834 0-15.084-6.25t-6.25-15.084v-234.666q0-8.834 6.25-15.084t15.084-6.25h64v-66.5l93 66.5h184.333q8.834 0 15.084 6.25t6.25 15.084v234.667q0 8.834-6.25 15.084t-15.084 6.25z" />
<glyph unicode="&#xe077;" d="M256 448q35.334 0 60.334-25t25-60.334q0-29.5-18-52.417t-46-30.083v-257.667q35.5 4 67.084 20.584t54.334 41.75 36 58.666 13.25 69.834q0 8.834 6.25 15.084t15.084 6.25 15.084-6.25 6.25-15.084q0-47.834-18.584-91.25t-50-74.834-74.834-50-91.25-18.584-91.25 18.584-74.834 50-50 74.834-18.584 91.25q0 8.834 6.25 15.084t15.084 6.25 15.084-6.25 6.25-15.084q0-36.334 13.25-69.834t36-58.666 54.334-41.75 67.084-20.584v257.667q-28 7.166-46 30.083t-18 52.417q0 35.333 25 60.333t60.334 25zM256 405.333q-17.666 0-30.166-12.5t-12.5-30.167 12.5-30.166 30.166-12.5 30.166 12.5 12.5 30.166-12.5 30.167-30.166 12.5z" />
<glyph unicode="&#xe078;" d="M256 448q6 0 9-0.167 31-1.166 60.25-10.25t54.084-24.416 45.584-36.916 35.166-46.916 22.5-55.084 8.084-60.916-8.084-60.916-22.5-55.084-35.166-46.916-45.584-36.916-54.084-24.416-60.25-10.25q-3-0.166-9-0.166t-9 0.166q-31 1.166-60.25 10.25t-54.084 24.416-45.584 36.916-35.166 46.916-22.5 55.084-8.084 60.916 8.084 60.916 22.5 55.084 35.166 46.916 45.584 36.917 54.084 24.416 60.25 10.25q3 0.166 9 0.166zM150.167 192h-85q6.666-59.5 45.834-104.5t96.334-60q-21.666 32.834-37.75 74.416t-19.416 90.084zM319.166 192h-126.334q1.667-21.334 6.917-42.666t11.75-37.75 15-32.416 15.333-26.334 14.166-19.834q7.334 9.5 14.166 19.916t15.334 26.416 15 32.416 11.75 37.666 6.916 42.584zM207.333 399.167q-57.167-15-96.334-60t-45.834-104.5h85q5.833 87 57.166 164.5zM446.834 192h-84.834q-6.166-87.166-57.334-164.5 57.166 15 96.334 60t45.834 104.5zM256 393.667q-7.333-9.5-14.084-19.916t-15.334-26.416-15.084-32.417-11.75-37.666-6.917-42.584h126.333q-1.666 21.334-6.916 42.667t-11.75 37.75-15 32.416-15.334 26.334-14.166 19.833zM304.666 399.167q51.166-77.333 57.334-164.5h84.834q-6.666 59.5-45.834 104.5t-96.334 60z" />
<glyph unicode="&#xe079;" d="M21.334 362.667l234.666 106.666 234.667-106.666v-298.666l-234.667-106.666-234.667 106.666v298.666zM234.667 242.333l-170.667 77.5v-228.334l170.667-77.666v228.5zM448 91.5v228.334l-170.667-77.5v-228.5zM413.334 351l-157.334 71.5-157.333-71.5 157.333-71.5z" />
<glyph unicode="&#xe080;" d="M234.667 426.667q41.5 0 80.333-15.666 39.834-16.166 70.5-46.834 0.166-0.166 62.5-61.166v81q0 8.834 6.25 15.084t15.084 6.25 15.084-6.25 6.25-15.084v-128q0-8.833-6.25-15.083t-15.084-6.25h-128q-8.834 0-15.084 6.25t-6.25 15.084 6.25 15.083 15.084 6.25h72q-46.334 45-58 56.667-24.834 24.833-56.5 37.5-30.5 12.5-64.166 12.5t-64.166-12.5q-31.834-12.667-56.5-37.5-24.666-24.667-37.5-56.5-12.5-30.5-12.5-64.167t12.5-64.166q12.834-31.834 37.5-56.5 24.666-24.834 56.5-37.5 30.5-12.5 64.166-12.5t64.166 12.5q31.666 12.666 56.5 37.5 27.666 27.666 40.334 63.834 2.834 8.334 10.834 12.084t16.334 0.916q8.334-3 12.166-11t0.834-16.334q-7.666-21.834-20.75-42.666t-29.584-37q-30.666-30.666-70.5-46.834-38.834-15.666-80.334-15.666t-80.334 15.666q-39.834 16.166-70.5 46.834t-46.834 70.5q-15.666 38.834-15.666 80.334t15.666 80.334q16.166 39.834 46.834 70.5t70.5 46.834q38.834 15.666 80.334 15.666z" />
<glyph unicode="&#xe081;" d="M384 426.667q35.334 0 60.334-25t25-60.333-25-60.334-60.334-25q-18.834 0-35.584 7.75t-28.75 21.584l-108.166-54.167q1.833-8.834 1.833-17.834t-1.833-17.834l108.166-54.166q12 13.834 28.75 21.584t35.584 7.75q35.334 0 60.334-25t25-60.334-25-60.334-60.334-25-60.334 25-25 60.334q0 9 1.834 17.834l-108.166 54.166q-12-13.834-28.75-21.584t-35.584-7.75q-35.334 0-60.334 25t-25 60.334 25 60.334 60.334 25q18.834 0 35.584-7.75t28.75-21.583l108.166 54.166q-1.834 8.834-1.834 17.834 0 35.333 25 60.333t60.334 25zM128 256q-17.666 0-30.166-12.5t-12.5-30.167 12.5-30.166 30.166-12.5 30.166 12.5 12.5 30.166-12.5 30.167-30.166 12.5zM384 128q-17.666 0-30.166-12.5t-12.5-30.166 12.5-30.166 30.166-12.5 30.166 12.5 12.5 30.166-12.5 30.166-30.166 12.5zM384 384q-17.666 0-30.166-12.5t-12.5-30.166 12.5-30.167 30.166-12.5 30.166 12.5 12.5 30.167-12.5 30.166-30.166 12.5z" />
<glyph unicode="&#xe082;" d="M384 448h42.666q26.5 0 45.25-18.75t18.75-45.25v-42.666q0-8.834-6.25-15.084t-15.084-6.25-15.084 6.25-6.25 15.084v42.666q0 8.834-6.25 15.084t-15.084 6.25h-42.666q-8.834 0-15.084 6.25t-6.25 15.083 6.25 15.084 15.084 6.25zM42.666 106.667q8.834 0 15.084-6.25t6.25-15.084v-42.666q0-8.834 6.25-15.084t15.084-6.25h42.666q8.834 0 15.084-6.25t6.25-15.084-6.25-15.084-15.084-6.25h-42.666q-26.5 0-45.25 18.75t-18.75 45.25v42.666q0 8.834 6.25 15.084t15.084 6.25zM42.666 277.333q8.834 0 15.084-6.25t6.25-15.084v-85.334q0-8.834-6.25-15.084t-15.084-6.25-15.084 6.25-6.25 15.084v85.334q0 8.834 6.25 15.084t15.084 6.25zM213.333 21.333h85.333q8.834 0 15.084-6.25t6.25-15.084-6.25-15.084-15.084-6.25h-85.334q-8.834 0-15.084 6.25t-6.25 15.084 6.25 15.084 15.084 6.25zM85.334 448h42.666q8.834 0 15.084-6.25t6.25-15.084-6.25-15.084-15.084-6.25h-42.666q-8.834 0-15.084-6.25t-6.25-15.084v-42.666q0-8.834-6.25-15.084t-15.084-6.25-15.084 6.25-6.25 15.084v42.666q0 26.5 18.75 45.25t45.25 18.75zM469.334 106.667q8.834 0 15.084-6.25t6.25-15.084v-42.666q0-26.5-18.75-45.25t-45.25-18.75h-42.666q-8.834 0-15.084 6.25t-6.25 15.084 6.25 15.084 15.084 6.25h42.666q8.834 0 15.084 6.25t6.25 15.084v42.666q0 8.834 6.25 15.084t15.084 6.25zM469.334 277.333q8.834 0 15.084-6.25t6.25-15.084v-85.334q0-8.834-6.25-15.084t-15.084-6.25-15.084 6.25-6.25 15.084v85.334q0 8.834 6.25 15.084t15.084 6.25zM213.333 448h85.333q8.834 0 15.084-6.25t6.25-15.084-6.25-15.084-15.084-6.25h-85.334q-8.834 0-15.084 6.25t-6.25 15.084 6.25 15.084 15.084 6.25z" />
<glyph unicode="&#xe083;" d="M256 320q8.834 0 15.084-6.25t6.25-15.084v-64h64q8.834 0 15.084-6.25t6.25-15.084-6.25-15.084-15.084-6.25h-64v-64q0-8.834-6.25-15.084t-15.084-6.25-15.084 6.25-6.25 15.084v64h-64q-8.834 0-15.084 6.25t-6.25 15.084 6.25 15.084 15.084 6.25h64v64q0 8.834 6.25 15.084t15.084 6.25zM42.666 106.667q8.834 0 15.084-6.25t6.25-15.084v-42.666q0-8.834 6.25-15.084t15.084-6.25h42.666q8.834 0 15.084-6.25t6.25-15.084-6.25-15.084-15.084-6.25h-42.666q-26.5 0-45.25 18.75t-18.75 45.25v42.666q0 8.834 6.25 15.084t15.084 6.25zM42.666 277.333q8.834 0 15.084-6.25t6.25-15.084v-85.334q0-8.834-6.25-15.084t-15.084-6.25-15.084 6.25-6.25 15.084v85.334q0 8.834 6.25 15.084t15.084 6.25zM213.333 21.333h85.333q8.834 0 15.084-6.25t6.25-15.084-6.25-15.084-15.084-6.25h-85.334q-8.834 0-15.084 6.25t-6.25 15.084 6.25 15.084 15.084 6.25zM85.334 448h42.666q8.834 0 15.084-6.25t6.25-15.084-6.25-15.084-15.084-6.25h-42.666q-8.834 0-15.084-6.25t-6.25-15.084v-42.666q0-8.834-6.25-15.084t-15.084-6.25-15.084 6.25-6.25 15.084v42.666q0 26.5 18.75 45.25t45.25 18.75zM469.334 106.667q8.834 0 15.084-6.25t6.25-15.084v-42.666q0-26.5-18.75-45.25t-45.25-18.75h-42.666q-8.834 0-15.084 6.25t-6.25 15.084 6.25 15.084 15.084 6.25h42.666q8.834 0 15.084 6.25t6.25 15.084v42.666q0 8.834 6.25 15.084t15.084 6.25zM469.334 277.333q8.834 0 15.084-6.25t6.25-15.084v-85.334q0-8.834-6.25-15.084t-15.084-6.25-15.084 6.25-6.25 15.084v85.334q0 8.834 6.25 15.084t15.084 6.25zM213.333 448h85.333q8.834 0 15.084-6.25t6.25-15.084-6.25-15.084-15.084-6.25h-85.334q-8.834 0-15.084 6.25t-6.25 15.084 6.25 15.084 15.084 6.25zM384 448h42.666q26.5 0 45.25-18.75t18.75-45.25v-42.666q0-8.834-6.25-15.084t-15.084-6.25-15.084 6.25-6.25 15.084v42.666q0 8.834-6.25 15.084t-15.084 6.25h-42.666q-8.834 0-15.084 6.25t-6.25 15.083 6.25 15.084 15.084 6.25z" />
<glyph unicode="&#xe084;" d="M384 448h42.666q26.5 0 45.25-18.75t18.75-45.25v-42.666q0-8.834-6.25-15.084t-15.084-6.25-15.084 6.25-6.25 15.084v42.666q0 8.834-6.25 15.084t-15.084 6.25h-42.666q-8.834 0-15.084 6.25t-6.25 15.083 6.25 15.084 15.084 6.25zM42.666 106.667q8.834 0 15.084-6.25t6.25-15.084v-42.666q0-8.834 6.25-15.084t15.084-6.25h42.666q8.834 0 15.084-6.25t6.25-15.084-6.25-15.084-15.084-6.25h-42.666q-26.5 0-45.25 18.75t-18.75 45.25v42.666q0 8.834 6.25 15.084t15.084 6.25zM42.666 277.333q8.834 0 15.084-6.25t6.25-15.084v-85.334q0-8.834-6.25-15.084t-15.084-6.25-15.084 6.25-6.25 15.084v85.334q0 8.834 6.25 15.084t15.084 6.25zM213.333 21.333h85.333q8.834 0 15.084-6.25t6.25-15.084-6.25-15.084-15.084-6.25h-85.334q-8.834 0-15.084 6.25t-6.25 15.084 6.25 15.084 15.084 6.25zM85.334 448h42.666q8.834 0 15.084-6.25t6.25-15.084-6.25-15.084-15.084-6.25h-42.666q-8.834 0-15.084-6.25t-6.25-15.084v-42.666q0-8.834-6.25-15.084t-15.084-6.25-15.084 6.25-6.25 15.084v42.666q0 26.5 18.75 45.25t45.25 18.75zM469.334 106.667q8.834 0 15.084-6.25t6.25-15.084v-42.666q0-26.5-18.75-45.25t-45.25-18.75h-42.666q-8.834 0-15.084 6.25t-6.25 15.084 6.25 15.084 15.084 6.25h42.666q8.834 0 15.084 6.25t6.25 15.084v42.666q0 8.834 6.25 15.084t15.084 6.25zM170.667 234.667h170.667q8.834 0 15.084-6.25t6.25-15.084-6.25-15.084-15.084-6.25h-170.667q-8.833 0-15.083 6.25t-6.25 15.084 6.25 15.084 15.084 6.25zM469.334 277.333q8.834 0 15.084-6.25t6.25-15.084v-85.334q0-8.834-6.25-15.084t-15.084-6.25-15.084 6.25-6.25 15.084v85.334q0 8.834 6.25 15.084t15.084 6.25zM213.333 448h85.333q8.834 0 15.084-6.25t6.25-15.084-6.25-15.084-15.084-6.25h-85.334q-8.834 0-15.084 6.25t-6.25 15.084 6.25 15.084 15.084 6.25z" />
<glyph unicode="&#xe085;" d="M21.334 448h241.333l209.334-209.167q18.666-18.667 18.666-45.167 0-26.666-18.666-45.334l-151-151q-18.666-18.666-45.166-18.666-26.666 0-45.334 18.666l-209.167 209.333v241.334zM441.834 208.667l-196.833 196.667h-181v-181l196.667-196.834q6.334-6.166 15.166-6.166t15 6.166l151 151q6.166 6.166 6.166 15t-6.166 15.166zM181.333 341.333q22.167 0 37.75-15.584t15.583-37.75-15.584-37.75-37.75-15.584-37.75 15.584-15.584 37.75 15.584 37.75 37.75 15.584zM181.333 298.667q-4.333 0-7.5-3.167t-3.167-7.5 3.167-7.5 7.5-3.166 7.5 3.166 3.167 7.5-3.167 7.5-7.5 3.167z" />
<glyph unicode="&#xe086;" d="M406.834 342.833q29.5-29.5 45.666-67.834 16.834-39.666 16.834-83t-16.834-83q-16.166-38.334-45.666-67.834t-67.834-45.666q-39.666-16.834-83-16.834t-83 16.834q-38.334 16.166-67.834 45.666t-45.666 67.834q-16.834 39.666-16.834 83t16.834 83q16.166 38.334 45.666 67.834 6.166 6.166 15 6.166t15.166-6.166 6.333-15-6.333-15.167q-23.5-23.5-36.666-54.166-13.334-32-13.334-66.5t13.334-66.5q13.166-30.666 36.666-54.166t54.167-36.666q32-13.334 66.5-13.334t66.5 13.334q30.666 13.166 54.166 36.666t36.666 54.166q13.334 32 13.334 66.5t-13.334 66.5q-13.166 30.666-36.666 54.166-6.334 6.334-6.334 15.167t6.334 15 15.166 6.166 15-6.166zM256 448q8.834 0 15.084-6.25t6.25-15.084v-213.334q0-8.834-6.25-15.084t-15.084-6.25-15.084 6.25-6.25 15.084v213.334q0 8.834 6.25 15.084t15.084 6.25z" />
<glyph unicode="&#xe087;" d="M384 426.667q35.334 0 60.334-25t25-60.333-25-60.334-60.334-25h-42.666v-85.334h42.666q35.334 0 60.334-25t25-60.334-25-60.334-60.334-25-60.334 25-25 60.334v42.666h-85.334v-42.666q0-35.334-25-60.334t-60.334-25-60.334 25-25 60.334 25 60.334 60.334 25h42.666v85.334h-42.666q-35.334 0-60.334 25t-25 60.334 25 60.333 60.334 25 60.334-25 25-60.333v-42.667h85.334v42.667q0 35.333 25 60.333t60.334 25zM170.667 85.333v42.666h-42.667q-17.666 0-30.166-12.5t-12.5-30.166 12.5-30.166 30.166-12.5 30.166 12.5 12.5 30.166zM128 384q-17.666 0-30.166-12.5t-12.5-30.166 12.5-30.167 30.166-12.5h42.666v42.667q0 17.666-12.5 30.166t-30.166 12.5zM298.666 170.667v85.334h-85.334v-85.334h85.334zM384 128h-42.666v-42.666q0-17.666 12.5-30.166t30.166-12.5 30.166 12.5 12.5 30.166-12.5 30.166-30.166 12.5zM384 384q-17.666 0-30.166-12.5t-12.5-30.166v-42.667h42.666q17.666 0 30.166 12.5t12.5 30.167-12.5 30.166-30.166 12.5z" />
<glyph unicode="&#xe088;" d="M64 384h106.666q12.166 0 18.5-10.666l164.5-288h94.334q8.834 0 15.084-6.25t6.25-15.084-6.25-15.084-15.084-6.25h-106.666q-12.166 0-18.5 10.666l-164.5 288h-94.334q-8.834 0-15.084 6.25t-6.25 15.084 6.25 15.084 15.084 6.25zM298.666 384h106.666q8.834 0 15.084-6.25t6.25-15.083-6.25-15.084-15.084-6.25h-106.666q-8.834 0-15.084 6.25t-6.25 15.083 6.25 15.084 15.084 6.25z" />
<glyph unicode="&#xe089;" d="M279.5 446.833q43.166-4.333 81.916-23.833t68.084-51.666q28.834-31.667 44.834-71.834 16.334-41.5 16.334-86.166 0-47.834-18.5-91.334-17.166-41.166-50.166-74.666-33.5-33-74.666-50.166-43.5-18.5-91.334-18.5-44.666 0-86.166 16.334-40.166 16-71.834 44.834-32.166 29.334-51.666 68.084t-23.834 81.916q-0.834 9.5 5.416 16.5t15.916 7q8.166 0 14.25-5.5t6.916-13.666q3.5-35.5 19.416-67.166t42.416-55.666q25.833-23.834 58.667-36.666 34-13.334 70.5-13.334 39.166 0 74.666 15 33.666 14.166 61.166 41.166 27 27.5 41.166 61.166 15 35.5 15 74.666 0 36.5-13.334 70.5-12.834 32.834-36.666 58.667-24 26.5-55.666 42.416t-67.166 19.416q-8.166 0.834-13.666 6.917t-5.5 14.25q0 6.334 2.416 10.834t6.416 6.666 7.584 3 7.084 0.834zM42.666 448h128q8.834 0 15.084-6.25t6.25-15.084-6.25-15.084-15.084-6.25h-76.5l177-177q6.166-6 6.166-15 0-9.166-6.084-15.25t-15.25-6.084q-9 0-15.166 6.166l-176.833 177v-76.5q0-8.834-6.25-15.084t-15.084-6.25-15.084 6.25-6.25 15.084v128q0 8.834 6.25 15.084t15.084 6.25z" />
<glyph unicode="&#xe090;" d="M426.666 448q26.5 0 45.25-18.75t18.75-45.25v-341.334q0-26.5-18.75-45.25t-45.25-18.75-45.25 18.75-18.75 45.25v341.334q0 26.5 18.75 45.25t45.25 18.75zM85.334 192q26.5 0 45.25-18.75t18.75-45.25v-85.334q0-26.5-18.75-45.25t-45.25-18.75-45.25 18.75-18.75 45.25v85.334q0 26.5 18.75 45.25t45.25 18.75zM85.334 149.333q-8.834 0-15.084-6.25t-6.25-15.084v-85.334q0-8.834 6.25-15.084t15.084-6.25 15.084 6.25 6.25 15.084v85.334q0 8.834-6.25 15.084t-15.084 6.25zM256 320q26.5 0 45.25-18.75t18.75-45.25v-213.334q0-26.5-18.75-45.25t-45.25-18.75-45.25 18.75-18.75 45.25v213.334q0 26.5 18.75 45.25t45.25 18.75zM256 277.333q-8.834 0-15.084-6.25t-6.25-15.084v-213.334q0-8.834 6.25-15.084t15.084-6.25 15.084 6.25 6.25 15.084v213.334q0 8.833-6.25 15.083t-15.084 6.25zM426.666 405.333q-8.834 0-15.084-6.25t-6.25-15.084v-341.334q0-8.834 6.25-15.084t15.084-6.25 15.084 6.25 6.25 15.084v341.334q0 8.834-6.25 15.084t-15.084 6.25z" />
<glyph unicode="&#xe091;" d="M256 448q26.5 0 45.25-18.75t18.75-45.25v-341.334q0-26.5-18.75-45.25t-45.25-18.75-45.25 18.75-18.75 45.25v341.334q0 26.5 18.75 45.25t45.25 18.75zM85.334 192q26.5 0 45.25-18.75t18.75-45.25v-85.334q0-26.5-18.75-45.25t-45.25-18.75-45.25 18.75-18.75 45.25v85.334q0 26.5 18.75 45.25t45.25 18.75zM85.334 149.333q-8.834 0-15.084-6.25t-6.25-15.084v-85.334q0-8.834 6.25-15.084t15.084-6.25 15.084 6.25 6.25 15.084v85.334q0 8.834-6.25 15.084t-15.084 6.25zM256 405.333q-8.834 0-15.084-6.25t-6.25-15.084v-341.334q0-8.834 6.25-15.084t15.084-6.25 15.084 6.25 6.25 15.084v341.334q0 8.834-6.25 15.084t-15.084 6.25zM426.666 320q26.5 0 45.25-18.75t18.75-45.25v-213.334q0-26.5-18.75-45.25t-45.25-18.75-45.25 18.75-18.75 45.25v213.334q0 26.5 18.75 45.25t45.25 18.75zM426.666 277.333q-8.834 0-15.084-6.25t-6.25-15.084v-213.334q0-8.834 6.25-15.084t15.084-6.25 15.084 6.25 6.25 15.084v213.334q0 8.833-6.25 15.083t-15.084 6.25z" />
<glyph unicode="&#xe092;" d="M256 448q47.834 0 91.25-18.584t74.834-50 50-74.833 18.584-91.25-18.584-91.25-50-74.834-74.834-50-91.25-18.584-91.25 18.584-74.834 50-50 74.834-18.584 91.25 18.584 91.25 50 74.833 74.834 50 91.25 18.584zM234.667 192v212.167q-35.5-4-67.083-20.584t-54.334-41.75-36-58.666-13.25-69.834q0-39 15.25-74.584t40.916-61.25 61.25-40.916 74.583-15.25q36.334 0 69.834 13.25t58.666 36 41.75 54.334 20.584 67.084h-212.167zM277.334 404.167v-169.5h169.5q-3.666 33-18.166 62.584t-36.834 51.916-51.916 36.834-62.584 18.166z" />
<glyph unicode="&#xe093;" d="M198.333 277.333l57.667 177.5 57.666-177.5h186.666l-151-104.834 57.666-174.334-151 110.5-151-109.666 57.666 173.5-151 104.834h186.667zM282.666 234.667l-26.666 84.833-26.666-84.833h-82.834l66.666-44.167-26.166-78.834 69.166 50 68.834-50.5-26.166 78.834 66.5 44.667h-82.666z" />
<glyph unicode="&#xe094;" d="M213.333 384q8.833 0 15.083-6.25t6.25-15.083q0-9-6.333-15.167l-112.834-112.833h332.5q8.834 0 15.084-6.25t6.25-15.084-6.25-15.084-15.084-6.25h-332.5l112.834-112.834q6.333-6.166 6.333-15.166 0-8.834-6.25-15.084t-15.083-6.25q-9 0-15.166 6.166l-149.333 149.334q-6.166 6.5-6.166 15.166t6.166 15.167l149.333 149.333q6.333 6.166 15.166 6.166z" />
<glyph unicode="&#xe095;" d="M298.666 384q9 0 15.166-6.166l149.333-149.334q6.166-6.167 6.166-15.167t-6.166-15.166l-149.333-149.334q-6.166-6.166-15.166-6.166-9.166 0-15.25 6.084t-6.084 15.25q0 9 6.166 15.166l113 112.834h-332.5q-8.834 0-15.084 6.25t-6.25 15.084 6.25 15.084 15.084 6.25h332.5l-113 112.833q-6.166 6.167-6.166 15.167 0 9.166 6.084 15.25t15.25 6.083z" />
<glyph unicode="&#xe096;" d="M256 426.667q9 0 15.166-6.166l149.334-149.334q6.166-6.166 6.166-15.166 0-9.167-6.084-15.25t-15.25-6.083q-9 0-15.166 6.167l-112.834 113v-332.5q0-8.834-6.25-15.084t-15.084-6.25-15.084 6.25-6.25 15.084v332.5l-112.834-113q-6.166-6.167-15.166-6.167-9.166 0-15.25 6.083t-6.084 15.25q0 9 6.166 15.166l149.333 149.334q6.167 6.166 15.166 6.166z" />
<glyph unicode="&#xe097;" d="M256 426.667q8.834 0 15.084-6.25t6.25-15.083v-332.5l112.834 113q6.166 6.166 15.166 6.166 9.166 0 15.25-6.084t6.084-15.25q0-9-6.166-15.166l-149.334-149.334q-6.166-6.166-15.166-6.166t-15.166 6.166l-149.333 149.333q-6.166 6.166-6.166 15.166 0 9.166 6.084 15.25t15.25 6.084q9 0 15.166-6.166l112.834-113v332.5q0 8.834 6.25 15.084t15.084 6.25z" />
<glyph unicode="&#xe098;" d="M106.666 298.667l106.666 106.666v-384l-106.666 106.666h-42.666q-26.5 0-45.25 18.75t-18.75 45.25v41.834q0 26.5 18.75 45.666t45.25 19.167h42.666zM170.667 124.333v178.834l-46.334-47.167h-60.334q-8.666 0-15-6.583t-6.334-15.583v-41.834q0-8.834 6.25-15.084t15.084-6.25h60.334zM310 284.5q6.166 0 11.584-3.5t8.084-9.5q11.666-28.167 11.666-58.167 0-30.5-11.666-57.834-2.5-6-7.916-9.584t-11.75-3.584q-7.834 0-14.584 5.916t-6.75 15.416q0 3.834 1.666 8.334 8.334 19.666 8.334 41.334 0 21.5-8.334 41.5-1.666 3.833-1.666 8.334 0 9.5 6.416 15.416t14.916 5.917zM375.166 344q12 0 18.334-10.5 16.5-27.5 24.5-56.833 8.666-31.334 8.666-63.334 0-31.834-8.666-63.5-8.166-29.666-24.5-56.834-6.166-10.334-18.334-10.334-8.334 0-14.834 6t-6.5 15.334q0 5.834 3.166 11 13 21.666 19.834 46.334 7.166 25 7.166 52 0 26.834-7.166 51.834-6.834 24.666-19.834 46.5-3.166 4.833-3.166 10.833 0 9 6.584 15.25t14.75 6.25zM439 402.5q11.5 0 17.666-9.333 27.166-39.834 41.25-85.667t14.084-94.166-14.084-94.166-41.25-85.666q-6-9.334-17.666-9.334-8.666 0-14.916 6t-6.25 15.334q0 6.666 3.666 12 47.834 70.166 47.834 155.834 0 42-12.166 81.667t-35.666 74.166q-3.666 5.334-3.666 12 0 9.334 6.25 15.334t14.916 6z" />
<glyph unicode="&#xe099;" d="M128 298.667l106.666 106.666v-384l-106.666 106.666h-42.666q-26.5 0-45.25 18.75t-18.75 45.25v41.834q0 26.5 18.75 45.666t45.25 19.167h42.666zM192 124.333v178.834l-46.334-47.167h-60.334q-8.666 0-15-6.583t-6.334-15.583v-41.834q0-8.834 6.25-15.084t15.084-6.25h60.334zM448 298.667q9.166 0 15.25-6.083t6.084-15.25q0-9-6.166-15.167l-49-48.834 49-48.834q6.166-6.166 6.166-15.166 0-9.166-6.084-15.25t-15.25-6.084q-9 0-15.166 6.166l-48.834 49-48.834-49q-6.166-6.166-15.166-6.166-9.166 0-15.25 6.084t-6.084 15.25q0 9 6.166 15.166l49 48.834-49 48.834q-6.166 6.167-6.166 15.167 0 9.166 6.084 15.25t15.25 6.083q9 0 15.166-6.167l48.834-49 48.834 49q6.166 6.167 15.166 6.167z" />
<glyph unicode="&#xe100;" d="M341.334 448h85.334q26.5 0 45.25-18.75t18.75-45.25v-341.334q0-26.5-18.75-45.25t-45.25-18.75h-85.334q-26.5 0-45.25 18.75t-18.75 45.25v341.334q0 26.5 18.75 45.25t45.25 18.75zM85.334 192h85.334q26.5 0 45.25-18.75t18.75-45.25v-85.334q0-26.5-18.75-45.25t-45.25-18.75h-85.334q-26.5 0-45.25 18.75t-18.75 45.25v85.334q0 26.5 18.75 45.25t45.25 18.75zM170.667 149.333h-85.334q-8.834 0-15.084-6.25t-6.25-15.084v-85.334q0-8.834 6.25-15.084t15.084-6.25h85.334q8.833 0 15.083 6.25t6.25 15.084v85.334q0 8.834-6.25 15.084t-15.084 6.25zM85.334 448h85.334q26.5 0 45.25-18.75t18.75-45.25v-85.333q0-26.5-18.75-45.25t-45.25-18.75h-85.334q-26.5 0-45.25 18.75t-18.75 45.25v85.333q0 26.5 18.75 45.25t45.25 18.75zM170.667 405.333h-85.334q-8.834 0-15.084-6.25t-6.25-15.084v-85.333q0-8.833 6.25-15.083t15.084-6.25h85.334q8.833 0 15.083 6.25t6.25 15.083v85.334q0 8.834-6.25 15.084t-15.084 6.25zM426.666 405.333h-85.334q-8.834 0-15.084-6.25t-6.25-15.084v-341.334q0-8.834 6.25-15.084t15.084-6.25h85.334q8.834 0 15.084 6.25t6.25 15.084v341.334q0 8.834-6.25 15.084t-15.084 6.25z" />
<glyph unicode="&#xe101;" d="M85.334 448h85.334q26.5 0 45.25-18.75t18.75-45.25v-341.334q0-26.5-18.75-45.25t-45.25-18.75h-85.334q-26.5 0-45.25 18.75t-18.75 45.25v341.334q0 26.5 18.75 45.25t45.25 18.75zM170.667 405.333h-85.334q-8.834 0-15.084-6.25t-6.25-15.084v-341.334q0-8.834 6.25-15.084t15.084-6.25h85.334q8.833 0 15.083 6.25t6.25 15.084v341.334q0 8.834-6.25 15.084t-15.084 6.25zM341.334 192h85.334q26.5 0 45.25-18.75t18.75-45.25v-85.334q0-26.5-18.75-45.25t-45.25-18.75h-85.334q-26.5 0-45.25 18.75t-18.75 45.25v85.334q0 26.5 18.75 45.25t45.25 18.75zM426.666 149.333h-85.334q-8.834 0-15.084-6.25t-6.25-15.084v-85.334q0-8.834 6.25-15.084t15.084-6.25h85.334q8.834 0 15.084 6.25t6.25 15.084v85.334q0 8.834-6.25 15.084t-15.084 6.25zM341.334 448h85.334q26.5 0 45.25-18.75t18.75-45.25v-85.333q0-26.5-18.75-45.25t-45.25-18.75h-85.334q-26.5 0-45.25 18.75t-18.75 45.25v85.333q0 26.5 18.75 45.25t45.25 18.75zM426.666 405.333h-85.334q-8.834 0-15.084-6.25t-6.25-15.084v-85.333q0-8.833 6.25-15.083t15.084-6.25h85.334q8.834 0 15.084 6.25t6.25 15.083v85.334q0 8.834-6.25 15.084t-15.084 6.25z" />
<glyph unicode="&#xe102;" d="M341.334 448h85.334q26.5 0 45.25-18.75t18.75-45.25v-85.333q0-26.5-18.75-45.25t-45.25-18.75h-85.334q-26.5 0-45.25 18.75t-18.75 45.25v85.333q0 26.5 18.75 45.25t45.25 18.75zM85.334 192h85.334q26.5 0 45.25-18.75t18.75-45.25v-85.334q0-26.5-18.75-45.25t-45.25-18.75h-85.334q-26.5 0-45.25 18.75t-18.75 45.25v85.334q0 26.5 18.75 45.25t45.25 18.75zM170.667 149.333h-85.334q-8.834 0-15.084-6.25t-6.25-15.084v-85.334q0-8.834 6.25-15.084t15.084-6.25h85.334q8.833 0 15.083 6.25t6.25 15.084v85.334q0 8.834-6.25 15.084t-15.084 6.25zM85.334 448h85.334q26.5 0 45.25-18.75t18.75-45.25v-85.333q0-26.5-18.75-45.25t-45.25-18.75h-85.334q-26.5 0-45.25 18.75t-18.75 45.25v85.333q0 26.5 18.75 45.25t45.25 18.75zM170.667 405.333h-85.334q-8.834 0-15.084-6.25t-6.25-15.084v-85.333q0-8.833 6.25-15.083t15.084-6.25h85.334q8.833 0 15.083 6.25t6.25 15.083v85.334q0 8.834-6.25 15.084t-15.084 6.25zM341.334 192h85.334q26.5 0 45.25-18.75t18.75-45.25v-85.334q0-26.5-18.75-45.25t-45.25-18.75h-85.334q-26.5 0-45.25 18.75t-18.75 45.25v85.334q0 26.5 18.75 45.25t45.25 18.75zM426.666 149.333h-85.334q-8.834 0-15.084-6.25t-6.25-15.084v-85.334q0-8.834 6.25-15.084t15.084-6.25h85.334q8.834 0 15.084 6.25t6.25 15.084v85.334q0 8.834-6.25 15.084t-15.084 6.25zM426.666 405.333h-85.334q-8.834 0-15.084-6.25t-6.25-15.084v-85.333q0-8.833 6.25-15.083t15.084-6.25h85.334q8.834 0 15.084 6.25t6.25 15.083v85.334q0 8.834-6.25 15.084t-15.084 6.25z" />
<glyph unicode="&#xe103;" d="M85.334 448h341.334q26.5 0 45.25-18.75t18.75-45.25v-341.334q0-26.5-18.75-45.25t-45.25-18.75h-341.334q-26.5 0-45.25 18.75t-18.75 45.25v341.334q0 26.5 18.75 45.25t45.25 18.75zM234.667 21.333v170.667h-170.667v-149.333q0-8.834 6.25-15.084t15.084-6.25h149.333zM234.667 234.667v170.667h-149.333q-8.834 0-15.084-6.25t-6.25-15.084v-149.333h170.667zM448 42.667v149.334h-170.667v-170.667h149.333q8.834 0 15.084 6.25t6.25 15.084zM426.666 405.333h-149.334v-170.667h170.667v149.333q0 8.834-6.25 15.084t-15.084 6.25z" />
<glyph unicode="&#xe104;" d="M64 405.333h384q26.5 0 45.25-18.75t18.75-45.25v-256q0-26.5-18.75-45.25t-45.25-18.75h-384q-26.5 0-45.25 18.75t-18.75 45.25v256q0 26.5 18.75 45.25t45.25 18.75zM149.333 64v298.667h-85.334q-8.834 0-15.084-6.25t-6.25-15.084v-256q0-8.834 6.25-15.084t15.084-6.25h85.334zM320 64v298.667h-128v-298.667h128zM448 362.667h-85.334v-298.666h85.334q8.834 0 15.084 6.25t6.25 15.084v256q0 8.834-6.25 15.084t-15.084 6.25z" />
<glyph unicode="&#xe105;" d="M346.666 144.167q8.666 0 15-6.334l60.334-60.334q6.334-6.334 6.334-15.166 0-8.666-6.334-15t-15-6.334q-8.834 0-15.166 6.334l-60.334 60.334q-6.166 6.166-6.166 15.166 0 8.834 6.25 15.084t15.084 6.25zM165.5 144.167q8.834 0 15.084-6.25t6.25-15.084-6.333-15.166l-60.334-60.334q-6.334-6.334-15-6.334-8.834 0-15.084 6.25t-6.25 15.084q0 9 6.166 15.166l60.334 60.334q6.333 6.334 15.166 6.334zM42.666 234.667h85.334q8.834 0 15.084-6.25t6.25-15.084-6.25-15.084-15.084-6.25h-85.334q-8.834 0-15.084 6.25t-6.25 15.084 6.25 15.084 15.084 6.25zM256 106.667q8.834 0 15.084-6.25t6.25-15.084v-85.334q0-8.834-6.25-15.084t-15.084-6.25-15.084 6.25-6.25 15.084v85.334q0 8.834 6.25 15.084t15.084 6.25zM105.166 385.667q8.666 0 15-6.333l60.334-60.334q6.333-6.333 6.333-15 0-8.833-6.25-15.083t-15.083-6.25q-9 0-15.166 6.166l-60.334 60.334q-6.166 6.166-6.166 15.166 0 8.834 6.25 15.084t15.084 6.25zM384 234.667h85.334q8.834 0 15.084-6.25t6.25-15.084-6.25-15.084-15.084-6.25h-85.334q-8.834 0-15.084 6.25t-6.25 15.084 6.25 15.084 15.084 6.25zM256 448q8.834 0 15.084-6.25t6.25-15.084v-85.333q0-8.834-6.25-15.084t-15.084-6.25-15.084 6.25-6.25 15.084v85.333q0 8.834 6.25 15.084t15.084 6.25zM407 385.667q8.666 0 15-6.333t6.334-15q0-8.834-6.334-15.167l-60.334-60.333q-6.166-6.167-15-6.167-9.166 0-15.25 6.083t-6.084 15.25q0 8.834 6.166 15l60.334 60.334q6.334 6.334 15.166 6.334z" />
<glyph unicode="&#xe106;" d="M256 469.333q21.666 0 41.416-8.5t34-22.75 22.75-34 8.5-41.417v-21.333h85.334v-320q0-26.5-18.75-45.25t-45.25-18.75h-256q-26.5 0-45.25 18.75t-18.75 45.25v320h85.334v21.333q0 21.667 8.5 41.417t22.75 34 34 22.75 41.416 8.5zM405.334 21.333v277.334h-298.666v-277.334q0-8.834 6.25-15.084t15.084-6.25h256q8.834 0 15.084 6.25t6.25 15.084zM256 426.667q-26.5 0-45.25-18.75t-18.75-45.25v-21.333h128v21.333q0 26.5-18.75 45.25t-45.25 18.75z" />
<glyph unicode="&#xe107;" d="M256 448q47.834 0 91.25-18.584t74.834-50 50-74.833 18.584-91.25-18.584-91.25-50-74.834-74.834-50-91.25-18.584-91.25 18.584-74.834 50-50 74.834-18.584 91.25 18.584 91.25 50 74.833 74.834 50 91.25 18.584zM375.834 63.333l-269.834 269.834q-20-25.166-31-55.833t-11-64q0-39 15.25-74.584t40.916-61.25 61.25-40.916 74.584-15.25q33.5 0 64.166 10.916t55.666 31.084zM256 405.333q-33.5 0-64.166-10.917t-55.666-31.083l269.834-269.834q20.166 25 31.084 55.666t10.916 64.166q0 39-15.25 74.584t-40.916 61.25-61.25 40.916-74.584 15.25z" />
<glyph unicode="&#xe108;" d="M149.333 448q17.667 0 38-4.417t39.167-10.666l37.666-12.5t39.166-10.666 38-4.416q18 0 35.5 2.166t29.834 5.334 22.084 6.333 14.584 5.334l4.666 2.166v-298.666q-1.666-0.834-5-2.25t-14.084-5.166-22.416-6.5-29.416-5.084-35.75-2.334q-17.666 0-38 4.416t-39.166 10.666l-37.666 12.5t-39.166 10.666-38 4.416q-31.834 0-64-7.166v-142.167q0-8.834-6.25-15.084t-15.084-6.25-15.084 6.25-6.25 15.084v426.666q1.666 0.834 5 2.25t14.084 5.167 22.416 6.5 29.416 5.083 35.75 2.334zM149.333 405.333q-32.666 0-64-8.5v-211.167q32 6.334 64 6.334 23.667 0 47.333-5.416t53.834-15.416q3.833-1.334 14.416-4.916t15.5-5.166 14.416-4.334 15.916-4 14.75-2.334 15.834-1.084q32.666 0 64 8.5v211.167q-32-6.334-64-6.334-23.666 0-47.334 5.417t-53.834 15.416q-3.833 1.334-14.416 4.917t-15.5 5.166-14.416 4.334-15.916 4-14.75 2.333-15.834 1.084z" />
<glyph unicode="&#xe109;" d="M213.333 448h85.333q26.5 0 45.25-18.75t18.75-45.25v-21.333h85.334q8.834 0 15.084-6.25t6.25-15.083-6.25-15.084-15.084-6.25h-21.334v-256q0-26.5-18.75-45.25t-45.25-18.75h-213.333q-26.5 0-45.25 18.75t-18.75 45.25v256h-21.334q-8.834 0-15.084 6.25t-6.25 15.084 6.25 15.083 15.084 6.25h85.334v21.334q0 26.5 18.75 45.25t45.25 18.75zM384 64v256h-256v-256q0-8.834 6.25-15.084t15.084-6.25h213.334q8.834 0 15.084 6.25t6.25 15.084zM298.666 405.333h-85.334q-8.834 0-15.084-6.25t-6.25-15.084v-21.333h128v21.333q0 8.834-6.25 15.084t-15.084 6.25z" />
<glyph unicode="&#xe110;" d="M362.666 448h64q26.5 0 45.25-18.75t18.75-45.25v-64q0-8.833-6.25-15.083t-15.084-6.25-15.084 6.25-6.25 15.083v64q0 8.834-6.25 15.084t-15.084 6.25h-64q-8.834 0-15.084 6.25t-6.25 15.084 6.25 15.084 15.084 6.25zM42.666 128q8.834 0 15.084-6.25t6.25-15.084v-64q0-8.834 6.25-15.084t15.084-6.25h64q8.834 0 15.084-6.25t6.25-15.084-6.25-15.084-15.084-6.25h-64q-26.5 0-45.25 18.75t-18.75 45.25v64q0 8.834 6.25 15.084t15.084 6.25zM85.334 448h64q8.834 0 15.084-6.25t6.25-15.084-6.25-15.084-15.084-6.25h-64q-8.834 0-15.084-6.25t-6.25-15.084v-64q0-8.833-6.25-15.083t-15.084-6.25-15.084 6.25-6.25 15.083v64q0 26.5 18.75 45.25t45.25 18.75zM469.334 128q8.834 0 15.084-6.25t6.25-15.084v-64q0-26.5-18.75-45.25t-45.25-18.75h-64q-8.834 0-15.084 6.25t-6.25 15.084 6.25 15.084 15.084 6.25h64q8.834 0 15.084 6.25t6.25 15.084v64q0 8.834 6.25 15.084t15.084 6.25z" />
<glyph unicode="&#xe111;" d="M362.666 448q8.834 0 15.084-6.25t6.25-15.084v-64q0-8.834 6.25-15.084t15.084-6.25h64q8.834 0 15.084-6.25t6.25-15.084-6.25-15.083-15.084-6.25h-64q-26.5 0-45.25 18.75t-18.75 45.25v64q0 8.834 6.25 15.084t15.084 6.25zM42.666 128h64q26.5 0 45.25-18.75t18.75-45.25v-64q0-8.834-6.25-15.084t-15.084-6.25-15.084 6.25-6.25 15.084v64q0 8.834-6.25 15.084t-15.084 6.25h-64q-8.834 0-15.084 6.25t-6.25 15.084 6.25 15.084 15.084 6.25zM149.333 448q8.833 0 15.083-6.25t6.25-15.084v-64q0-26.5-18.75-45.25t-45.25-18.75h-64q-8.834 0-15.084 6.25t-6.25 15.083 6.25 15.084 15.084 6.25h64q8.834 0 15.084 6.25t6.25 15.083v64q0 8.834 6.25 15.084t15.084 6.25zM405.334 128h64q8.834 0 15.084-6.25t6.25-15.084-6.25-15.084-15.084-6.25h-64q-8.834 0-15.084-6.25t-6.25-15.084v-64q0-8.834-6.25-15.084t-15.084-6.25-15.084 6.25-6.25 15.084v64q0 26.5 18.75 45.25t45.25 18.75z" />
<glyph unicode="&#xe112;" d="M298.666 192.167q8.834 0 15.166-6.334l134.167-134.167v97.834q0 8.834 6.25 15.084t15.084 6.25 15.084-6.25 6.25-15.084v-149.334q0-8.834-6.334-15.166t-15.166-6.334h-149.333q-8.834 0-15.084 6.25t-6.25 15.084 6.25 15.084 15.084 6.25h97.834l-134.166 134.167q-6.166 6.5-6.166 15.166 0 8.834 6.25 15.166t15.084 6.334zM42.666 448h149.334q8.834 0 15.084-6.25t6.25-15.084-6.25-15.084-15.084-6.25h-97.834l134.167-134q6.333-6.334 6.333-15.167t-6.333-15.083-15.166-6.25q-8.5 0-15.166 6.167l-134 134.166v-97.833q0-8.834-6.25-15.084t-15.084-6.25-15.084 6.25-6.25 15.084v149.333q0 8.834 6.25 15.084t15.084 6.25z" />
<glyph unicode="&#xe113;" d="M42.666 448q9 0 15.166-6.167l134.167-134.166v97.833q0 8.834 6.25 15.084t15.084 6.25 15.084-6.25 6.25-15.084v-149.333q0-8.833-6.333-15.166t-15.167-6.333h-149.333q-8.834 0-15.084 6.25t-6.25 15.084 6.25 15.083 15.084 6.25h97.833l-134.167 134.167q-6.166 6.166-6.166 15.166 0 9.166 6.084 15.25t15.25 6.084zM298.834 192h149.334q8.834 0 15.084-6.25t6.25-15.084-6.25-15.084-15.084-6.25h-97.834l134-134.166q6.334-6.334 6.334-15.166t-6.25-15.084-15.084-6.25q-9 0-15.166 6.166l-134.167 134.166v-97.834q0-8.834-6.25-15.084t-15.084-6.25-15.084 6.25-6.25 15.084v149.334q0 8.834 6.334 15.166t15.166 6.334z" />
<glyph unicode="&#xe114;" d="M256 426.667q8.834 0 15.084-6.25t6.25-15.083v-170.667h170.666q8.834 0 15.084-6.25t6.25-15.084-6.25-15.084-15.084-6.25h-170.667v-170.666q0-8.834-6.25-15.084t-15.084-6.25-15.084 6.25-6.25 15.084v170.667h-170.667q-8.834 0-15.084 6.25t-6.25 15.084 6.25 15.084 15.084 6.25h170.667v170.667q0 8.834 6.25 15.084t15.084 6.25z" />
<glyph unicode="&#xe115;" d="M64 234.667h384q8.834 0 15.084-6.25t6.25-15.084-6.25-15.084-15.084-6.25h-384q-8.834 0-15.084 6.25t-6.25 15.084 6.25 15.084 15.084 6.25z" />
<glyph unicode="&#xe116;" d="M448 362.667q9.166 0 15.25-6.083t6.084-15.25q0-9-6.166-15.167l-256-256q-6.167-6.166-15.166-6.166t-15.166 6.166l-128 128q-6.166 6.166-6.166 15.166 0 9.166 6.084 15.25t15.25 6.083q9 0 15.166-6.167l112.834-113 240.833 241q6.166 6.167 15.166 6.167z" />
<glyph unicode="&#xe117;" d="M405.334 384q9.166 0 15.25-6.083t6.084-15.25q0-9-6.166-15.167l-134.334-134.166 134.333-134.167q6.166-6.166 6.166-15.166 0-9.166-6.084-15.25t-15.25-6.084q-9 0-15.166 6.166l-134.166 134.334-134.167-134.333q-6.166-6.166-15.166-6.166-9.166 0-15.25 6.084t-6.084 15.25q0 9 6.166 15.166l134.333 134.167-134.333 134.167q-6.166 6.166-6.166 15.166 0 9.167 6.084 15.25t15.25 6.084q9 0 15.166-6.167l134.167-134.333 134.167 134.333q6.166 6.166 15.166 6.166z" />
<glyph unicode="&#xe118;" d="M256 469.333q9 0 15.166-6.166l75.334-75.5q6.334-6.333 6.334-15.166t-6.25-15.084-15.084-6.25-15.166 6.334l-39 39v-161.833h161.834l-39 39q-6.334 6.334-6.334 15.167t6.25 15.083 15.084 6.25 15.166-6.333l75.5-75.333q6.166-6.167 6.166-15.167t-6.166-15l-75.5-75.5q-6.334-6.334-15.166-6.334t-15.084 6.25-6.25 15.084 6.334 15.166l39 39h-161.833v-161.833l39 39q6.334 6.334 15.166 6.334t15.084-6.25 6.25-15.084-6.334-15.166l-75.334-75.5q-6.166-6.166-15.166-6.166-8.834 0-15 6.166l-75.5 75.5q-6.333 6.334-6.333 15.166t6.25 15.084 15.083 6.25 15.166-6.334l39-39v161.833h-161.833l39-39q6.334-6.334 6.334-15.166t-6.25-15.084-15.084-6.25-15.166 6.334l-75.5 75.334q-6.167 6.166-6.167 15.166t6.167 15.167l75.5 75.333q6.334 6.334 15.166 6.334t15.084-6.25 6.25-15.084-6.334-15.166l-39-39h161.833v161.833l-39-39q-6.333-6.334-15.166-6.334t-15.084 6.25-6.25 15.084 6.333 15.166l75.333 75.5q6.167 6.166 15.166 6.166z" />
<glyph unicode="&#xe119;" d="M170.667 405.333h277.333q26.5 0 45.25-18.75t18.75-45.25v-256q0-26.5-18.75-45.25t-45.25-18.75h-277.334l-170.667 192zM448 362.667h-258.166l-132.667-149.334 132.667-149.333h258.166q8.834 0 15.084 6.25t6.25 15.084v256q0 8.834-6.25 15.084t-15.084 6.25zM405.334 277.333q0-9-6.166-15.167l-49-48.834 49-48.834q6.166-6.166 6.166-15.166 0-9.166-6.084-15.25t-15.25-6.084q-9 0-15.166 6.166l-48.834 49-48.834-49q-6.166-6.166-15.166-6.166-8.834 0-15.084 6.25t-6.25 15.084q0 8.666 6.167 15.166l49 48.834-49 48.834q-6.167 6.5-6.167 15.167 0 8.833 6.25 15.083t15.083 6.25q9 0 15.166-6.166l48.834-49 48.834 49q6.166 6.166 15.166 6.166 9.166 0 15.25-6.083t6.084-15.25z" />
<glyph unicode="&#xe120;" d="M64 362.667h384q8.834 0 15.084-6.25t6.25-15.083-6.25-15.084-15.084-6.25h-384q-8.834 0-15.084 6.25t-6.25 15.084 6.25 15.083 15.084 6.25zM64 106.667h384q8.834 0 15.084-6.25t6.25-15.084-6.25-15.084-15.084-6.25h-384q-8.834 0-15.084 6.25t-6.25 15.084 6.25 15.084 15.084 6.25zM64 234.667h384q8.834 0 15.084-6.25t6.25-15.084-6.25-15.084-15.084-6.25h-384q-8.834 0-15.084 6.25t-6.25 15.084 6.25 15.084 15.084 6.25z" />
<glyph unicode="&#xe121;" d="M128 405.333h256l128-128v-192q0-26.5-18.75-45.25t-45.25-18.75h-384q-26.5 0-45.25 18.75t-18.75 45.25v192zM469.334 85.333v149.334h-93.666q-14.166-37-47.25-61.167t-72.416-24.166q-26.166 0-50.834 11.166t-43 30.584-27.5 43.584h-92v-149.334q0-8.666 6.166-15t15.166-6.334h384q8.834 0 15.084 6.25t6.25 15.084zM451.666 277.333l-84.5 85.333h-221.5l-85.334-85.333h110.334q0-21.167 11.334-40.834t31.25-32.084 42.75-12.416 42.75 12.416 31.25 32.084 11.334 40.834h110.334z" />
<glyph unicode="&#xe122;" d="M256 448q8.834 0 15.084-6.25t6.25-15.084v-247.167l70.166 70.334q6.166 6.167 15.166 6.167 9.166 0 15.25-6.083t6.084-15.25q0-9-6.166-15.167l-106.666-106.666q-6.166-6.166-15.166-6.166t-15.166 6.166l-106.666 106.666q-6.167 6.5-6.167 15.167 0 8.834 6.25 15.084t15.083 6.25q9 0 15.166-6.167l70.166-70.334v247.167q0 8.834 6.25 15.084t15.084 6.25zM469.334 149.333q8.834 0 15.084-6.25t6.25-15.084v-85.334q0-26.666-18.5-45.166-18.834-18.834-45-18.834h-341.834q-26.166 0-45.334 18.666-18.666 19.166-18.666 45.334v85.334q0 8.834 6.25 15.084t15.084 6.25 15.084-6.25 6.25-15.084v-85.334q0-8.834 6.25-15.084t15.084-6.25h341.834q8.666 0 14.75 6.25t6.084 15.084v85.334q0 8.834 6.25 15.084t15.084 6.25z" />
<glyph unicode="&#xe123;" d="M256 447q9 0 15.166-6.167l106.666-106.666q6.166-6.166 6.166-15.166 0-9.167-6.084-15.25t-15.25-6.084q-9 0-15.166 6.166l-70.166 70.334v-247.167q0-8.834-6.25-15.084t-15.084-6.25-15.084 6.25-6.25 15.084v247.167l-70.166-70.334q-6.5-6.166-15.166-6.166-8.834 0-15.084 6.25t-6.25 15.084q0 8.666 6.167 15.166l106.667 106.667q6.167 6.166 15.166 6.166zM469.334 148.333q8.834 0 15.084-6.25t6.25-15.084v-85.334q0-26.666-18.5-45.166-18.834-18.834-45-18.834h-341.834q-26.166 0-45.334 18.666-18.666 19.166-18.666 45.334v85.334q0 8.834 6.25 15.084t15.084 6.25 15.084-6.25 6.25-15.084v-85.334q0-8.834 6.25-15.084t15.084-6.25h341.834q8.666 0 14.75 6.25t6.084 15.084v85.334q0 8.834 6.25 15.084t15.084 6.25z" />
<glyph unicode="&#xe124;" d="M106.666 469.333h213.334l149.333-149.333v-298.667q0-26.5-18.75-45.25t-45.25-18.75h-298.666q-26.5 0-45.25 18.75t-18.75 45.25v384q0 26.5 18.75 45.25t45.25 18.75zM277.334 277.333v149.333h-170.667q-9 0-15.166-6.166t-6.166-15.166v-384q0-9 6.166-15.166t15.166-6.166h298.666q9 0 15.166 6.166t6.166 15.166v256h-149.333zM409 320l-89 89v-89h89z" />
<glyph unicode="&#xe125;" d="M106.666 469.333h213.334l149.333-149.333v-298.667q0-26.5-18.75-45.25t-45.25-18.75h-298.666q-26.5 0-45.25 18.75t-18.75 45.25v384q0 26.5 18.75 45.25t45.25 18.75zM256 234.667q8.834 0 15.084-6.25t6.25-15.084v-42.666h42.666q8.834 0 15.084-6.25t6.25-15.084-6.25-15.084-15.084-6.25h-42.666v-42.666q0-8.834-6.25-15.084t-15.084-6.25-15.084 6.25-6.25 15.084v42.666h-42.666q-8.834 0-15.084 6.25t-6.25 15.084 6.25 15.084 15.084 6.25h42.666v42.666q0 8.834 6.25 15.084t15.084 6.25zM277.334 277.333v149.333h-170.667q-9 0-15.166-6.166t-6.166-15.166v-384q0-9 6.166-15.166t15.166-6.166h298.666q9 0 15.166 6.166t6.166 15.166v256h-149.333zM409 320l-89 89v-89h89z" />
<glyph unicode="&#xe126;" d="M106.666 469.333h213.334l149.333-149.333v-298.667q0-26.5-18.75-45.25t-45.25-18.75h-298.666q-26.5 0-45.25 18.75t-18.75 45.25v384q0 26.5 18.75 45.25t45.25 18.75zM192 170.667h128q8.834 0 15.084-6.25t6.25-15.084-6.25-15.084-15.084-6.25h-128q-8.834 0-15.084 6.25t-6.25 15.084 6.25 15.084 15.084 6.25zM277.334 277.333v149.333h-170.667q-9 0-15.166-6.166t-6.166-15.166v-384q0-9 6.166-15.166t15.166-6.166h298.666q9 0 15.166 6.166t6.166 15.166v256h-149.333zM409 320l-89 89v-89h89z" />
<glyph unicode="&#xe127;" d="M256 448q46 0 89.166-17.5t76.834-51.166 51.166-76.834 17.5-89.166-17.5-89.166-51.166-76.834-76.834-51.166-89.166-17.5-89.166 17.5-76.834 51.166-51.166 76.834-17.5 89.166 17.5 89.166 51.166 76.834 76.834 51.166 89.166 17.5zM167 272.167l-61 61q-20.666-25.833-31.334-56.667t-10.666-63.166 10.666-63.166 31.334-56.666l61 61q-17.666 26.666-17.666 58.834t17.666 58.834zM375.834 63.333l-61 61q-26.666-17.666-58.834-17.666t-58.834 17.666l-61-61q25.834-20.666 56.666-31.334t63.166-10.666 63.166 10.666 56.666 31.334zM256 277.333q-26.5 0-45.25-18.75t-18.75-45.25 18.75-45.25 45.25-18.75 45.25 18.75 18.75 45.25-18.75 45.25-45.25 18.75zM256 405.333q-32.334 0-63.166-10.667t-56.666-31.333l61-61q26.666 17.666 58.834 17.666t58.834-17.666l61 61q-25.834 20.666-56.666 31.333t-63.166 10.667zM406 333.167l-61-61q17.666-26.667 17.666-58.834t-17.666-58.834l61-61q20.666 25.834 31.334 56.666t10.666 63.166-10.666 63.167-31.334 56.666z" />
<glyph unicode="&#xe128;" d="M85.334 448h149.333q8.834 0 15.084-6.25t6.25-15.084-6.25-15.084-15.084-6.25h-149.333q-8.834 0-15.084-6.25t-6.25-15.084v-341.334q0-8.834 6.25-15.084t15.084-6.25h341.334q8.834 0 15.084 6.25t6.25 15.084v149.333q0 8.834 6.25 15.084t15.084 6.25 15.084-6.25 6.25-15.084v-149.333q0-26.5-18.75-45.25t-45.25-18.75h-341.334q-26.5 0-45.25 18.75t-18.75 45.25v341.334q0 26.5 18.75 45.25t45.25 18.75zM341.334 448h128q8.834 0 15.084-6.25t6.25-15.084v-128q0-8.833-6.25-15.083t-15.084-6.25-15.084 6.25-6.25 15.083v76.5l-177-177q-6.166-6.166-15-6.166-9.166 0-15.25 6.084t-6.083 15.25q0 8.834 6.167 15l177 177h-76.5q-8.834 0-15.084 6.25t-6.25 15.084 6.25 15.084 15.084 6.25z" />
<glyph unicode="&#xe129;" d="M426.666 277.333q26.5 0 45.25-18.75t18.75-45.25-18.75-45.25-45.25-18.75-45.25 18.75-18.75 45.25 18.75 45.25 45.25 18.75zM85.334 277.333q26.5 0 45.25-18.75t18.75-45.25-18.75-45.25-45.25-18.75-45.25 18.75-18.75 45.25 18.75 45.25 45.25 18.75zM85.334 234.667q-8.834 0-15.084-6.25t-6.25-15.084 6.25-15.084 15.084-6.25 15.084 6.25 6.25 15.084-6.25 15.084-15.084 6.25zM256 277.333q26.5 0 45.25-18.75t18.75-45.25-18.75-45.25-45.25-18.75-45.25 18.75-18.75 45.25 18.75 45.25 45.25 18.75zM256 234.667q-8.834 0-15.084-6.25t-6.25-15.084 6.25-15.084 15.084-6.25 15.084 6.25 6.25 15.084-6.25 15.084-15.084 6.25zM426.666 234.667q-8.834 0-15.084-6.25t-6.25-15.084 6.25-15.084 15.084-6.25 15.084 6.25 6.25 15.084-6.25 15.084-15.084 6.25z" />
<glyph unicode="&#xe600;" d="M512 184.778l-256 198.713-256-198.714v81.019l256 198.713 256-198.714zM448 192v-192h-128v128h-128v-128h-128v192l192 144z" />
<glyph unicode="&#xe601;" d="M512 176l-96 96v144h-64v-80l-96 96-256-256v-16h64v-160h160v96h64v-96h160v160h64z" />
<glyph unicode="&#xe602;" d="M256 448l-256-256 48-48 48 48 32-192h96v96h64v-96h96l32 192 48-48 48 48-256 256zM256 242.746c-24.994 0-45.256 20.26-45.256 45.254s20.262 45.255 45.256 45.255c24.992 0 45.255-20.262 45.255-45.255 0-24.994-20.263-45.254-45.255-45.254z" />
<glyph unicode="&#xe603;" d="M0-32h256v512h-256v-512zM160 416h64v-64h-64v64zM160 288h64v-64h-64v64zM160 160h64v-64h-64v64zM32 416h64v-64h-64v64zM32 288h64v-64h-64v64zM32 160h64v-64h-64v64zM288 320h224v-32h-224zM288-32h64v128h96v-128h64v288h-224z" />
<glyph unicode="&#xe604;" d="M448 352v64h-448v-352c0-17.673 14.327-32 32-32h432c26.511 0 48 21.489 48 48v272h-64zM416 64h-384v320h384v-320zM64 320h320v-32h-320zM256 256h128v-32h-128zM256 192h128v-32h-128zM256 128h96v-32h-96zM64 256h160v-160h-160z" />
<glyph unicode="&#xe605;" d="M432 480c44.182 0 80-35.817 80-80 0-18.010-5.955-34.629-16-48l-32-32-112 112 32 32c13.371 10.045 29.989 16 48 16zM32 112l-32-144 144 32 296 296-112 112-296-296zM357.789 298.211l-224-224-27.578 27.578 224 224 27.578-27.578z" />
<glyph unicode="&#xe606;" d="M192 160l64 32 224 224-32 32-224-224-32-64zM144.65 46.451c-15.816 33.364-32.833 50.381-66.198 66.197l49.548 136.396 64 38.956 192 192h-96l-192-192-96-320 320 96 192 192v96l-192-192-38.956-64z" />
<glyph unicode="&#xe607;" d="M192 186.667c0 0 101.972 61.18 159.383 37.013 11.901 18.134 23.624 37.668 35.101 57.611-56.163 13.76-130.484 1.376-130.484 1.376s95.106 57.061 153.333 39.2c11.675 21.054 23.027 41.821 33.978 61.152-46.388 3.134-91.311-4.352-91.311-4.352s59.574 35.744 113.289 41.799c16.899 27.43 32.585 48.94 46.711 59.534-280.5 0-448-320-512-512h32l96 160c0 0 32-32 128 0 22.737 7.579 45.474 28.626 67.786 56.967-56.308 14.277-131.786 1.7-131.786 1.7z" />
<glyph unicode="&#xe608;" d="M480.002 335.997l-111.999 111.999 32 32 111.999-111.999zM448 304l-16-176c-144 0-352-160-352-160l-26.565 26.565 136.832 136.832c5.487-2.184 11.467-3.397 17.733-3.397 26.51 0 48 21.49 48 48s-21.49 48-48 48c-26.51 0-48-21.49-48-48 0-6.266 1.213-12.245 3.397-17.733l-136.832-136.832-26.565 26.565c0 0 160 208 160 352l176 16 112-112z" />
<glyph unicode="&#xe609;" d="M192 384c123.712 0 224-100.289 224-224h-48c0 47.012-18.307 91.209-51.549 124.451s-77.44 51.549-124.451 51.549v48zM192 480c176.73 0 320-143.27 320-320h-48c0 36.74-7.185 72.357-21.355 105.859-13.698 32.384-33.317 61.478-58.312 86.474s-54.090 44.615-86.474 58.312c-33.502 14.17-69.118 21.355-105.859 21.355v48zM287.195 255.196c21.879-21.878 32.798-50.553 32.785-79.225-31.98-47.998-31.98-111.971-31.98-111.971-128 0-224-96-224-96l-18.565 18.565 141.791 141.791c1.558-0.233 3.151-0.356 4.774-0.356 17.673 0 32 14.327 32 32s-14.327 32-32 32c-17.673 0-32-14.327-32-32 0-1.623 0.123-3.217 0.356-4.774l-141.791-141.791-18.565 18.565c0 0 96 96 96 224 0 0 63.999 0 111.999 32 28.664 0 57.327-10.935 79.196-32.804z" />
<glyph unicode="&#xe60a;" d="M447.97 163.249c-0.006 0.353-0.015 0.701-0.021 1.053-0.016 0.714-0.035 1.427-0.059 2.14-5.015 157.824-191.89 313.558-191.89 313.558s-186.877-155.734-191.89-313.561c-0.022-0.715-0.044-1.426-0.060-2.141-0.007-0.352-0.015-0.701-0.021-1.053-0.018-1.080-0.028-2.162-0.028-3.248 0-1.184 0.014-2.361 0.035-3.539 0.002-0.098 0.003-0.195 0.007-0.293 2.039-104.266 87.198-188.165 191.957-188.165 104.758 0 189.916 83.899 191.959 188.168 0.002 0.098 0.004 0.196 0.005 0.293 0.021 1.178 0.036 2.357 0.036 3.539 0 1.086-0.012 2.168-0.030 3.249zM383.975 157.63l-0.004-0.203c-0.659-33.643-14.266-65.167-38.313-88.774-24.071-23.636-55.915-36.653-89.658-36.653-6.231 0-12.397 0.447-18.462 1.319 69.528 41.423 116.108 117.352 116.108 204.161 0 9.728-0.59 19.317-1.726 28.74 20.136-36.97 31.032-71.4 32.001-101.813l0.002-0.072c0.016-0.474 0.026-0.946 0.039-1.422l0.014-0.724c0.014-0.728 0.024-1.459 0.024-2.189 0-0.792-0.010-1.581-0.025-2.37z" />
<glyph unicode="&#xe60b;" d="M512 192v192h-96v32c0 17.6-14.4 32-32 32h-352c-17.6 0-32-14.4-32-32v-96c0-17.6 14.4-32 32-32h352c17.6 0 32 14.4 32 32v32h64v-128h-288v-64h-16c-8.837 0-16-7.163-16-16v-160c0-8.837 7.163-16 16-16h64c8.837 0 16 7.163 16 16v160c0 8.837-7.163 16-16 16h-16v32h288zM384 384h-352v32h352v-32z" />
<glyph unicode="&#xe60c;" d="M448 384h-384v-320h384v320zM512 448v0-448h-512v448h512zM416 96h-320v64l96 160 131.5-160 92.5 64v-32zM320 304c0 26.51 21.49 48 48 48s48-21.49 48-48c0-26.51-21.49-48-48-48s-48 21.49-48 48z" />
<glyph unicode="&#xe60d;" d="M0 416v-416h512v416h-512zM480 32h-448v352h448v-352zM352 304c0 26.51 21.49 48 48 48s48-21.49 48-48c0-26.51-21.49-48-48-48s-48 21.49-48 48zM448 64h-384l96 256 128-160 64 48z" />
<glyph unicode="&#xe60e;" d="M64 352v-320h448v320h-448zM480 85.333l-64 106.667-72.533-60.444-55.467 92.444-192-160v256h384v-234.667zM128 240c0 26.51 21.49 48 48 48s48-21.49 48-48c0-26.51-21.49-48-48-48s-48 21.49-48 48zM448 416h-448v-320h32v288h416z" />
<glyph unicode="&#xe60f;" d="M152 176c0-57.438 46.562-104 104-104s104 46.562 104 104-46.562 104-104 104-104-46.562-104-104zM480 352h-112c-8 32-16 64-48 64h-128c-32 0-40-32-48-64h-112c-17.6 0-32-14.4-32-32v-288c0-17.6 14.4-32 32-32h448c17.6 0 32 14.4 32 32v288c0 17.6-14.4 32-32 32zM256 34c-78.425 0-142 63.574-142 142s63.575 142 142 142c78.426 0 142-63.575 142-142s-63.573-142-142-142zM480 256h-64v32h64v-32z" />
<glyph unicode="&#xe610;" d="M160 384l352 96v-368c0-44.183-50.145-80-112-80s-112 35.817-112 80c0 44.183 50.145 80 112 80 17.179 0 33.451-2.766 48-7.703v164.794l-224-61.091v-240c0-44.183-50.144-80-112-80s-112 35.817-112 80c0 44.183 50.144 80 112 80 17.179 0 33.451-2.766 48-7.703v263.703z" />
<glyph unicode="&#xe611;" d="M96 190.857v-221.715c5.227-0.748 10.567-1.143 16-1.143h16v224.001h-16c-5.433 0-10.773-0.395-16-1.143zM384 192v-224h16c5.434 0 10.773 0.395 16 1.143v221.714c-5.227 0.748-10.566 1.143-16 1.143h-16zM512 224c0 141.385-114.615 256-256 256s-256-114.615-256-256c0-30.709 5.414-60.153 15.328-87.437-9.736-16.601-15.328-35.926-15.328-56.563 0-44.677 26.163-83.239 64-101.216v202.432c-10.063-4.781-19.29-11.030-27.429-18.452-2.996 14.61-4.571 29.739-4.571 45.236 0 123.712 100.288 224 224 224s224-100.288 224-224c0-15.497-1.574-30.626-4.571-45.236-8.14 7.422-17.365 13.671-27.429 18.452v-202.432c37.838 17.977 64 56.539 64 101.216 0 20.637-5.592 39.962-15.328 56.563 9.914 27.284 15.328 56.728 15.328 87.437z" />
<glyph unicode="&#xe612;" d="M490.594 399.946c-71.816 10.325-151.166 16.054-234.593 16.054-83.43 0-162.778-5.729-234.597-16.054-13.765-53.863-21.404-113.375-21.404-175.946 0-62.57 7.639-122.083 21.404-175.945 71.819-10.326 151.168-16.055 234.597-16.055 83.427 0 162.776 5.729 234.593 16.055 13.766 53.862 21.406 113.375 21.406 175.945 0 62.571-7.64 122.083-21.406 175.946zM192.001 128v192l160-96-160-96z" />
<glyph unicode="&#xe613;" d="M0 416v-384h512v384h-512zM96 64h-64v64h64v-64zM96 192h-64v64h64v-64zM96 320h-64v64h64v-64zM384 64h-256v320h256v-320zM480 64h-64v64h64v-64zM480 192h-64v64h64v-64zM480 320h-64v64h64v-64zM192 320v-192l128 96z" />
</font>
</defs>
</svg>
